<?xml version="1.0" standalone="no"?>
<!DOCTYPE svg PUBLIC "-//W3C//DTD SVG 1.1//EN" "http://www.w3.org/Graphics/SVG/1.1/DTD/svg11.dtd" >
<svg xmlns="http://www.w3.org/2000/svg" xmlns:xlink="http://www.w3.org/1999/xlink" version="1.1">
<metadata>
Created by FontForge 20170910 at Mon Sep  3 21:40:22 2018
 By Jimmy Wärting
This typeface is licensed under the SIL open font license.
</metadata>
<defs>
<font id="Jost-Book" horiz-adv-x="570" >
  <font-face 
    font-family="Jost* 400 Book"
    font-weight="400"
    font-stretch="normal"
    units-per-em="1000"
    panose-1="0 0 0 0 0 0 0 0 0 0"
    ascent="800"
    descent="-200"
    x-height="460"
    cap-height="700"
    bbox="-111 -350 1476 1030"
    underline-thickness="50"
    underline-position="-125"
    unicode-range="U+0020-FF19"
  />
    <missing-glyph />
    <glyph glyph-name="Zacute" horiz-adv-x="500" 
d="M50 -200h400v1000h-400v-1000zM100 -150v900h300v-900h-300z" />
    <glyph glyph-name="uni006C" unicode="l" horiz-adv-x="230" 
d="M75 780v-780h80v780h-80z" />
    <glyph glyph-name="uni002E" unicode="." horiz-adv-x="300" 
d="M95 40q0 -22 16.5 -38.5t38.5 -16.5q23 0 39 16.5t16 38.5q0 23 -16 39t-39 16q-22 0 -38.5 -16t-16.5 -39z" />
    <glyph glyph-name="uni2151" unicode="&#x2151;" horiz-adv-x="784" 
d="M568 700l-520 -700h65l520 700h-65zM30 611l93 28v-365h51v426l-144 -36v-53zM717 284q0 -43 -26.5 -71t-67.5 -28q-40 0 -67 28t-27 71q0 44 27 71t67 27q41 0 67.5 -27t26.5 -71zM598 2l141 195q12 17 19.5 39.5t7.5 47.5q0 65 -41 104.5t-102 39.5t-102 -39.5
t-41 -104.5q0 -39 17 -69.5t45 -48.5t62 -18q14 0 26 2t22 8l-119 -156h65z" />
    <glyph glyph-name="uni00E8" unicode="&#xe8;" horiz-adv-x="515" 
d="M123 690l180 -150l45 30l-150 160zM117 210h362q1 6 1 12v12q0 73 -27 125.5t-76 81.5t-114 29q-59 0 -106.5 -24t-77.5 -67t-40 -100q-2 -12 -3 -24t-1 -25q0 -69 28.5 -123.5t78 -85.5t111.5 -31q60 0 100 14.5t68 41t51 61.5l-65 41q-23 -37 -58.5 -60t-85.5 -23
q-63 0 -102 37.5t-44 107.5zM119 278q6 56 47.5 89t96.5 33q60 0 92 -34t38 -88h-274z" />
    <glyph glyph-name="uni0142" unicode="&#x142;" horiz-adv-x="230" 
d="M75 780v-331l-90 -54l20 -55l70 42v-382h80v430l100 60l-20 55l-80 -48v283h-80z" />
    <glyph glyph-name="uni017C" unicode="&#x17c;" horiz-adv-x="460" 
d="M300 385l-285 -385h410v75h-265l285 385h-400v-75h255zM190 615q0 -22 16.5 -38.5t38.5 -16.5q23 0 39 16.5t16 38.5q0 23 -16 39t-39 16q-22 0 -38.5 -16t-16.5 -39z" />
    <glyph glyph-name="uni2076" unicode="&#x2076;" horiz-adv-x="346" 
d="M85 416q0 44 27 71.5t67 27.5q41 0 67.5 -27.5t26.5 -71.5q0 -43 -26.5 -70.5t-67.5 -27.5q-40 0 -67 27.5t-27 70.5zM204 698l-141 -195q-12 -16 -19.5 -38.5t-7.5 -48.5q0 -64 41 -104t102 -40t102 40t41 104q0 39 -17 69.5t-45 48.5t-62 18q-14 0 -26 -2t-22 -8
l119 156h-65z" />
    <glyph glyph-name="uni0078" unicode="x" horiz-adv-x="420" 
d="M320 460l-110 -160l-110 160h-90l157 -223l-167 -237h90l120 174l120 -174h90l-167 237l157 223h-90z" />
    <glyph glyph-name="uni00B7" unicode="&#xb7;" horiz-adv-x="300" 
d="M95 240q0 -22 16.5 -38.5t38.5 -16.5q23 0 39 16.5t16 38.5q0 23 -16 39t-39 16q-22 0 -38.5 -16t-16.5 -39z" />
    <glyph glyph-name="uni0112" unicode="&#x112;" horiz-adv-x="550" 
d="M105 770h350v75h-350v-75zM165 340h295v80h-295v200h315v80h-315h-38h-47v-700h47h38h315v80h-315v260z" />
    <glyph glyph-name="uni00E5.alt" 
d="M35 230q0 -74 31 -128t83 -83t114 -29q54 0 95.5 25.5t66.5 72.5v-88h75v460h-75v-88q-25 47 -66.5 72.5t-95.5 25.5q-62 0 -114 -29t-83 -82.5t-31 -128.5zM116 230q0 53 21.5 90t57.5 56t78 19q35 0 69 -19t56 -56t22 -90t-22 -90t-56 -56t-69 -19q-42 0 -78 19
t-57.5 56t-21.5 90zM181 630q0 -45 31.5 -72.5t70.5 -27.5t70.5 27.5t31.5 72.5t-31.5 72.5t-70.5 27.5t-70.5 -27.5t-31.5 -72.5zM232 630q0 25 16 39t35 14t35 -14t16 -39t-16 -39t-35 -14t-35 14t-16 39z" />
    <glyph glyph-name="uni00A9" unicode="&#xa9;" horiz-adv-x="800" 
d="M40 350q0 -78 27.5 -144t76 -114.5t114.5 -75t142 -26.5q77 0 142.5 26.5t114 75t76 114.5t27.5 144t-27.5 144t-76 114.5t-114 75t-142.5 26.5q-76 0 -142 -26.5t-114.5 -75t-76 -114.5t-27.5 -144zM95 350q0 89 40 159t109.5 110.5t155.5 40.5q87 0 156 -40.5
t109 -110.5t40 -159t-40 -159t-109 -110.5t-156 -40.5q-86 0 -155.5 40.5t-109.5 110.5t-40 159zM239 350q0 49 20.5 86t56 58t79.5 21t78.5 -17t56.5 -45v67q-26 23 -57.5 34.5t-77.5 11.5q-58 0 -105.5 -28t-76 -76.5t-28.5 -111.5q0 -62 28.5 -111t76 -77t105.5 -28
q46 0 77.5 11.5t57.5 34.5v67q-22 -28 -56.5 -45t-78.5 -17t-79.5 21t-56 58t-20.5 86z" />
    <glyph glyph-name="uni0047" unicode="G" horiz-adv-x="775" 
d="M405 275h233q-11 -54 -42 -99.5t-81 -73t-120 -27.5q-74 0 -134 35t-95.5 97t-35.5 143q0 82 35.5 143.5t95.5 96.5t134 35q80 0 139 -31.5t92 -87.5l60 55q-45 73 -119.5 111t-171.5 38q-76 0 -141 -26.5t-113 -75t-74.5 -114.5t-26.5 -144t26.5 -144t74.5 -114.5
t113 -75t141 -26.5q80 0 142.5 29.5t105.5 80.5t65 116.5t22 138.5h-325v-80z" />
    <glyph glyph-name="uni00F1" unicode="&#xf1;" horiz-adv-x="525" 
d="M98 567l53 -37q0 8 4 20t15 21.5t31 9.5q23 0 39.5 -11.5t35.5 -23.5t46 -12q38 0 66 22.5t40 50.5l-46 43q-30 -48 -56 -48q-20 0 -33 7t-24.5 16.5t-27 16.5t-39.5 7q-34 0 -65 -22.5t-39 -59.5zM370 280v-280h80v290q0 89 -43.5 134.5t-114.5 45.5q-42 0 -77.5 -19
t-59.5 -53v62h-80v-460h80v280q0 50 32.5 82.5t84.5 32.5q98 0 98 -115z" />
    <glyph glyph-name="uni201A" unicode="&#x201a;" horiz-adv-x="275" 
d="M120 80l-60 -230h55l100 230h-95z" />
    <glyph glyph-name="uni2044" unicode="&#x2044;" horiz-adv-x="705" 
d="M580 700l-520 -700h65l520 700h-65z" />
    <glyph glyph-name="uni0064" unicode="d" 
d="M116 230q0 53 21.5 90t57.5 56t78 19q35 0 69 -19t56 -56t22 -90t-22 -90t-56 -56t-69 -19q-42 0 -78 19t-57.5 56t-21.5 90zM35 230q0 -74 31 -128t83 -83t114 -29q51 0 91.5 23t65.5 66v-79h80v780h-80v-399q-25 43 -65.5 66t-91.5 23q-62 0 -114 -29t-83 -82.5
t-31 -128.5z" />
    <glyph glyph-name="uni00B3" unicode="&#xb3;" horiz-adv-x="312" 
d="M159 274q56 0 93.5 32t37.5 85q0 44 -23 70.5t-60 37.5q33 14 52 39t19 56q0 44 -31 78t-85 34q-52 0 -85.5 -30.5t-33.5 -79.5h49q0 28 20.5 46t49.5 18q32 0 48 -18.5t16 -48.5t-22 -51.5t-63 -21.5v-12v-21v-12q41 0 69 -19.5t28 -58.5q0 -34 -21.5 -54.5t-57.5 -20.5
t-59 19.5t-23 49.5h-52q0 -49 36.5 -83t97.5 -34z" />
    <glyph glyph-name="uni0122" unicode="&#x122;" horiz-adv-x="775" 
d="M399 -70l-88 -259l58 -21l110 250zM405 275h233q-11 -54 -42 -99.5t-81 -73t-120 -27.5q-74 0 -134 35t-95.5 97t-35.5 143q0 82 35.5 143.5t95.5 96.5t134 35q80 0 139 -31.5t92 -87.5l60 55q-45 73 -119.5 111t-171.5 38q-76 0 -141 -26.5t-113 -75t-74.5 -114.5
t-26.5 -144t26.5 -144t74.5 -114.5t113 -75t141 -26.5q80 0 142.5 29.5t105.5 80.5t65 116.5t22 138.5h-325v-80z" />
    <glyph glyph-name="uniFF10" unicode="&#xff10;" horiz-adv-x="580" 
d="M115 350q0 82 21.5 145t60.5 99t93 36t93.5 -36t60.5 -99t21 -145q0 -81 -21 -144.5t-60.5 -99.5t-93.5 -36t-93 36t-60.5 99.5t-21.5 144.5zM30 350q0 -105 33 -186t91.5 -127.5t135.5 -46.5t135.5 46.5t91.5 127.5t33 186t-33 186t-91.5 127.5t-135.5 46.5
t-135.5 -46.5t-91.5 -127.5t-33 -186z" />
    <glyph glyph-name="uni03C0" unicode="&#x3c0;" horiz-adv-x="540" 
d="M30 460v-75h60v-385h80v385h170v-264q0 -54 16 -82t45.5 -38t71.5 -10v80q-15 0 -27 4t-19 18.5t-7 47.5v244h80v75h-470z" />
    <glyph glyph-name="uni215E" unicode="&#x215e;" horiz-adv-x="772" 
d="M580 700l-520 -700h65l520 700h-65zM30 652h218l-178 -372h53l201 420h-294v-48zM495 319q0 -34 16 -58.5t44 -36.5q-32 -13 -53.5 -41t-21.5 -69q0 -32 17 -59.5t47 -44t67 -16.5q38 0 67.5 16.5t46.5 44t17 59.5q0 41 -21.5 69t-53.5 41q28 12 44 36.5t16 58.5
q0 44 -33 75.5t-83 31.5q-49 0 -82.5 -31.5t-33.5 -75.5zM544 313q0 30 19 49t48 19t48 -19t19 -49t-20 -48.5t-47 -18.5t-47 18.5t-20 48.5zM529 120q0 35 25.5 58t56.5 23q32 0 57 -23t25 -58q0 -39 -25 -60t-57 -21q-31 0 -56.5 21t-25.5 60z" />
    <glyph glyph-name="uni00FF" unicode="&#xff;" horiz-adv-x="440" 
d="M65 585q0 -22 16.5 -38.5t38.5 -16.5q23 0 39 16.5t16 38.5q0 23 -16 39t-39 16q-22 0 -38.5 -16t-16.5 -39zM265 585q0 -22 16.5 -38.5t38.5 -16.5q23 0 39 16.5t16 38.5q0 23 -16 39t-39 16q-22 0 -38.5 -16t-16.5 -39zM440 460h-90l-126 -317l-129 317h-95l176 -395
l-126 -285h90z" />
    <glyph glyph-name="uni00A5" unicode="&#xa5;" horiz-adv-x="580" 
d="M471 700l-181 -324l-180 324h-95l197 -335h-167v-75h203v-75h-203v-75h203v-140h86v140h196v75h-196v75h196v75h-161l196 335h-94z" />
    <glyph glyph-name="uni006D" unicode="m" horiz-adv-x="780" 
d="M705 290q0 89 -38.5 134.5t-109.5 45.5q-46 0 -83 -23t-59 -63q-33 86 -133 86q-43 0 -75 -21t-52 -56v67h-80v-460h80v280q0 50 27.5 82.5t79.5 32.5q49 0 68.5 -29t19.5 -86v-280h80v280q0 50 27.5 82.5t79.5 32.5q49 0 68.5 -29t19.5 -86v-280h80v290z" />
    <glyph glyph-name="uni0118" unicode="&#x118;" horiz-adv-x="550" 
d="M365 -130q-10 -10 -20 -15t-30 -5q-22 0 -35 11.5t-13 38.5q0 28 27 56t66 44h120v80h-315v260h295v80h-295v200h315v80h-315h-38h-47v-700h47h38h111q-37 -25 -63 -55t-26 -65q0 -44 30 -72t93 -28q32 0 54.5 12.5t33.5 27.5z" />
    <glyph glyph-name="uni2155" unicode="&#x2155;" horiz-adv-x="744" 
d="M568 700l-520 -700h65l520 700h-65zM30 611l93 28v-365h51v426l-144 -36v-53zM714 136q0 62 -35.5 102t-89.5 40q-33 0 -62 -16l27 111h159v45h-198l-55 -224q32 23 54.5 30.5t52.5 7.5q41 0 67.5 -26t26.5 -70q0 -43 -24.5 -69.5t-69.5 -26.5q-34 0 -63 21.5t-43 48.5
l-43 -30q21 -36 56 -62t93 -26q61 0 104 36.5t43 107.5z" />
    <glyph glyph-name="uni010F" unicode="&#x10f;" 
d="M618 780l-88 -259l58 -21l110 250zM116 230q0 53 21.5 90t57.5 56t78 19q35 0 69 -19t56 -56t22 -90t-22 -90t-56 -56t-69 -19q-42 0 -78 19t-57.5 56t-21.5 90zM35 230q0 -74 31 -128t83 -83t114 -29q51 0 91.5 23t65.5 66v-79h80v780h-80v-399q-25 43 -65.5 66
t-91.5 23q-62 0 -114 -29t-83 -82.5t-31 -128.5z" />
    <glyph glyph-name="uni0076" unicode="v" horiz-adv-x="440" 
d="M0 460l220 -495l220 495h-90l-130 -325l-130 325h-90z" />
    <glyph glyph-name="uni00E0" unicode="&#xe0;" horiz-adv-x="485" 
d="M88 680l180 -150l45 30l-150 160zM111 352q17 12 52.5 30t84.5 18q38 0 67.5 -17.5t29.5 -52.5v-77q-19 13 -48.5 23t-70.5 10q-55 0 -99.5 -18t-70.5 -53.5t-26 -89.5q0 -63 43.5 -99t114.5 -36q52 0 94 19.5t63 56.5v-66h80v330q0 67 -49 103.5t-128 36.5
q-62 0 -106 -19t-70 -38zM111 135q0 42 29 66t90 24q33 0 61 -6.5t54 -20.5v-18q0 -64 -38.5 -91.5t-98.5 -27.5q-97 0 -97 74z" />
    <glyph glyph-name="uni00E3" unicode="&#xe3;" horiz-adv-x="485" 
d="M83 567l53 -37q0 8 4 20t15 21.5t31 9.5q23 0 39.5 -11.5t35.5 -23.5t46 -12q38 0 66 22.5t40 50.5l-46 43q-30 -48 -56 -48q-20 0 -33 7t-24.5 16.5t-27 16.5t-39.5 7q-34 0 -65 -22.5t-39 -59.5zM111 352q17 12 52.5 30t84.5 18q38 0 67.5 -17.5t29.5 -52.5v-77
q-19 13 -48.5 23t-70.5 10q-55 0 -99.5 -18t-70.5 -53.5t-26 -89.5q0 -63 43.5 -99t114.5 -36q52 0 94 19.5t63 56.5v-66h80v330q0 67 -49 103.5t-128 36.5q-62 0 -106 -19t-70 -38zM111 135q0 42 29 66t90 24q33 0 61 -6.5t54 -20.5v-18q0 -64 -38.5 -91.5t-98.5 -27.5
q-97 0 -97 74z" />
    <glyph glyph-name="uni002F" unicode="/" horiz-adv-x="515" 
d="M420 700l-405 -850h80l405 850h-80z" />
    <glyph glyph-name="uni00F0" unicode="&#xf0;" horiz-adv-x="576" 
d="M155 520h120l61 -79q-16 10 -36 13t-43 3q-57 0 -104 -30t-75 -81t-28 -116q0 -72 31.5 -126t85.5 -84t121 -30q68 0 121.5 30t85 84t31.5 126q0 43 -12 80t-32 65l-105 145h78v65h-125l-84 115h-107l87 -115h-71v-65zM445 230q0 -48 -20.5 -84.5t-56 -57.5t-80.5 -21
t-80.5 21t-56 57.5t-20.5 84.5t20.5 85.5t56 58.5t80.5 21t80.5 -21t56 -58.5t20.5 -85.5z" />
    <glyph glyph-name="uni02D9" unicode="&#x2d9;" horiz-adv-x="300" 
d="M95 790q0 -22 16.5 -38.5t38.5 -16.5q23 0 39 16.5t16 38.5q0 23 -16 39t-39 16q-22 0 -38.5 -16t-16.5 -39z" />
    <glyph glyph-name="uni00B0" unicode="&#xb0;" horiz-adv-x="278" 
d="M60 600q0 36 22.5 59t56.5 23t56.5 -23t22.5 -59t-22.5 -59t-56.5 -23t-56.5 23t-22.5 59zM20 600q0 -52 34 -86t85 -34t85 34t34 86q0 53 -34 86.5t-85 33.5t-85 -33.5t-34 -86.5z" />
    <glyph glyph-name="uni00ED" unicode="&#xed;" horiz-adv-x="260" 
d="M290 700l-75 40l-150 -160l45 -30zM90 460v-460h80v460h-80z" />
    <glyph glyph-name="uni0143" unicode="&#x143;" horiz-adv-x="775" 
d="M610 700v-521l-530 556v-735h85v521l530 -556v735h-85zM560 905l-75 40l-150 -160l45 -30z" />
    <glyph glyph-name="uni00A2" unicode="&#xa2;" horiz-adv-x="580" 
d="M280 578v-111q-57 -8 -102 -40.5t-71 -83t-26 -113.5q0 -62 26 -112.5t71 -83t102 -41.5v-105h64v103q41 4 77.5 18.5t57.5 39.5v100q-16 -34 -60 -59t-100 -25q-45 0 -80.5 21.5t-56 58.5t-20.5 85t20.5 85.5t56 58.5t80.5 21q56 0 100 -25t60 -59v100q-21 24 -57.5 39
t-77.5 19v109h-64z" />
    <glyph glyph-name="uni012C" unicode="&#x12c;" horiz-adv-x="245" 
d="M-35 910q0 -34 17.5 -66.5t53 -53t87.5 -20.5q53 0 88 20.5t52.5 53t17.5 66.5h-71q0 -13 -7 -30.5t-26 -31t-54 -13.5t-54 13.5t-26 31t-7 30.5h-71zM80 700v-700h85v700h-85z" />
    <glyph glyph-name="uni007E" unicode="~" horiz-adv-x="575" 
d="M142 176q-4 11 -4 22q0 55 55 55q19 0 41.5 -8t44.5 -25q65 -48 115 -48q27 0 51 11t43 36q13 17 17.5 36.5t4.5 34.5q0 8 -1 15t-3 13l-79 5q3 -7 4 -14t1 -13q0 -49 -42 -49q-13 0 -31.5 7.5t-41.5 24.5q-63 48 -123 48q-31 0 -58 -13t-47 -39q-13 -18 -18.5 -36
t-5.5 -34q0 -13 3 -24z" />
    <glyph glyph-name="uni215C" unicode="&#x215c;" horiz-adv-x="847" 
d="M655 700l-520 -700h65l520 700h-65zM164 274q56 0 93.5 32t37.5 85q0 44 -23 70.5t-60 37.5q33 14 52 39t19 56q0 44 -31 78t-85 34q-52 0 -85.5 -30.5t-33.5 -79.5h49q0 28 20.5 46t49.5 18q32 0 48 -18.5t16 -48.5t-22 -51.5t-63 -21.5v-12v-21v-12q41 0 69 -19.5
t28 -58.5q0 -34 -21.5 -54.5t-57.5 -20.5t-59 19.5t-23 49.5h-52q0 -49 36.5 -83t97.5 -34zM570 319q0 -34 16 -58.5t44 -36.5q-32 -13 -53.5 -41t-21.5 -69q0 -32 17 -59.5t47 -44t67 -16.5q38 0 67.5 16.5t46.5 44t17 59.5q0 41 -21.5 69t-53.5 41q28 12 44 36.5t16 58.5
q0 44 -33 75.5t-83 31.5q-49 0 -82.5 -31.5t-33.5 -75.5zM619 313q0 30 19 49t48 19t48 -19t19 -49t-20 -48.5t-47 -18.5t-47 18.5t-20 48.5zM604 120q0 35 25.5 58t56.5 23q32 0 57 -23t25 -58q0 -39 -25 -60t-57 -21q-31 0 -56.5 21t-25.5 60z" />
    <glyph glyph-name="uni00D3" unicode="&#xd3;" horiz-adv-x="790" 
d="M515 920l-75 40l-150 -160l45 -30zM40 350q0 -76 26.5 -142t74.5 -114.5t113 -76t141 -27.5q77 0 141.5 27.5t112.5 76t74.5 114.5t26.5 142q0 77 -26.5 142.5t-74.5 114t-112.5 76t-141.5 27.5q-76 0 -141 -27.5t-113 -76t-74.5 -114t-26.5 -142.5zM130 350
q0 79 34.5 141t94.5 98t136 36q77 0 136.5 -36t94 -98t34.5 -141t-34.5 -141t-94 -98t-136.5 -36q-76 0 -136 36t-94.5 98t-34.5 141z" />
    <glyph glyph-name="uni0178" unicode="&#x178;" horiz-adv-x="561" 
d="M126 825q0 -22 16 -38.5t38 -16.5q23 0 39.5 16.5t16.5 38.5q0 23 -16.5 39t-39.5 16q-22 0 -38 -16t-16 -39zM326 825q0 -22 16 -38.5t38 -16.5q23 0 39.5 16.5t16.5 38.5q0 23 -16.5 39t-39.5 16q-22 0 -38 -16t-16 -39zM461 700l-181 -324l-180 324h-95l233 -399v-301
h85v302l233 398h-95z" />
    <glyph glyph-name="uni2157" unicode="&#x2157;" horiz-adv-x="831" 
d="M655 700l-520 -700h65l520 700h-65zM164 274q56 0 93.5 32t37.5 85q0 44 -23 70.5t-60 37.5q33 14 52 39t19 56q0 44 -31 78t-85 34q-52 0 -85.5 -30.5t-33.5 -79.5h49q0 28 20.5 46t49.5 18q32 0 48 -18.5t16 -48.5t-22 -51.5t-63 -21.5v-12v-21v-12q41 0 69 -19.5
t28 -58.5q0 -34 -21.5 -54.5t-57.5 -20.5t-59 19.5t-23 49.5h-52q0 -49 36.5 -83t97.5 -34zM801 136q0 62 -35.5 102t-89.5 40q-33 0 -62 -16l27 111h159v45h-198l-55 -224q32 23 54.5 30.5t52.5 7.5q41 0 67.5 -26t26.5 -70q0 -43 -24.5 -69.5t-69.5 -26.5q-34 0 -63 21.5
t-43 48.5l-43 -30q21 -36 56 -62t93 -26q61 0 104 36.5t43 107.5z" />
    <glyph glyph-name="uni0055" unicode="U" horiz-adv-x="626" 
d="M75 700v-470q0 -69 29.5 -123.5t83 -85.5t125.5 -31q73 0 126 31t82.5 85.5t29.5 123.5v470h-85v-470q0 -72 -39 -116t-114 -44t-114 44t-39 116v470h-85z" />
    <glyph glyph-name="uni0048" unicode="H" horiz-adv-x="715" 
d="M80 700v-700h85v340h385v-340h85v700h-85v-280h-385v280h-85z" />
    <glyph glyph-name="uni0144" unicode="&#x144;" horiz-adv-x="525" 
d="M370 280v-280h80v290q0 89 -43.5 134.5t-114.5 45.5q-45 0 -80.5 -22.5t-56.5 -60.5v73h-80v-460h80v280q0 50 32.5 82.5t84.5 32.5q98 0 98 -115zM402 680l-74 40l-150 -160l44 -30z" />
    <glyph glyph-name="uni0154" unicode="&#x154;" horiz-adv-x="560" 
d="M165 355v270h105q68 0 110.5 -35t42.5 -100q0 -64 -42.5 -99.5t-110.5 -35.5h-105zM165 280h85l195 -280h105l-209 288q74 18 120.5 70.5t46.5 131.5q0 65 -31.5 112t-85 72.5t-121.5 25.5h-105h-38h-47v-700h85v280zM405 920l-75 40l-150 -160l45 -30z" />
    <glyph glyph-name="uni0023" unicode="#" horiz-adv-x="605" 
d="M245 700l-47 -195h-123v-65h107l-43 -175h-104v-65h89l-49 -200h75l49 200h134l-48 -200h75l49 200h121v65h-106l43 175h103v65h-87l47 195h-75l-47 -195h-135l47 195h-75zM350 265h-136l43 175h135z" />
    <glyph glyph-name="uni00BA" unicode="&#xba;" horiz-adv-x="278" 
d="M60 580q0 36 22.5 59t56.5 23t56.5 -23t22.5 -59t-22.5 -59t-56.5 -23t-56.5 23t-22.5 59zM20 580q0 -52 34 -86t85 -34t85 34t34 86q0 53 -34 86.5t-85 33.5t-85 -33.5t-34 -86.5z" />
    <glyph glyph-name="uni215D" unicode="&#x215d;" horiz-adv-x="882" 
d="M690 700l-520 -700h65l520 700h-65zM326 416q0 62 -35.5 102t-89.5 40q-33 0 -62 -16l27 111h159v45h-198l-55 -224q32 23 54.5 30.5t52.5 7.5q41 0 67.5 -26t26.5 -70q0 -43 -24.5 -69.5t-69.5 -26.5q-34 0 -63 21.5t-43 48.5l-43 -30q21 -36 56 -62t93 -26
q61 0 104 36.5t43 107.5zM605 319q0 -34 16 -58.5t44 -36.5q-32 -13 -53.5 -41t-21.5 -69q0 -32 17 -59.5t47 -44t67 -16.5q38 0 67.5 16.5t46.5 44t17 59.5q0 41 -21.5 69t-53.5 41q28 12 44 36.5t16 58.5q0 44 -33 75.5t-83 31.5q-49 0 -82.5 -31.5t-33.5 -75.5zM654 313
q0 30 19 49t48 19t48 -19t19 -49t-20 -48.5t-47 -18.5t-47 18.5t-20 48.5zM639 120q0 35 25.5 58t56.5 23q32 0 57 -23t25 -58q0 -39 -25 -60t-57 -21q-31 0 -56.5 21t-25.5 60z" />
    <glyph glyph-name="uni02DA" unicode="&#x2da;" horiz-adv-x="278" 
d="M37 785q0 -45 31.5 -72.5t70.5 -27.5t70.5 27.5t31.5 72.5t-31.5 72.5t-70.5 27.5t-70.5 -27.5t-31.5 -72.5zM88 785q0 25 16 39t35 14t35 -14t16 -39t-16 -39t-35 -14t-35 14t-16 39z" />
    <glyph glyph-name="uni0114" unicode="&#x114;" horiz-adv-x="550" 
d="M122 910q0 -34 17.5 -66.5t53 -53t87.5 -20.5q53 0 88 20.5t52.5 53t17.5 66.5h-71q0 -13 -7 -30.5t-26 -31t-54 -13.5t-54 13.5t-26 31t-7 30.5h-71zM165 340h295v80h-295v200h315v80h-315h-38h-47v-700h47h38h315v80h-315v260z" />
    <glyph glyph-name="uni00F4" unicode="&#xf4;" horiz-adv-x="546" 
d="M273 645l110 -95l50 40l-160 140l-160 -140l50 -40zM116 230q0 48 20.5 85.5t56 58.5t80.5 21t80.5 -21t56 -58.5t20.5 -85.5t-20.5 -85t-56 -58.5t-80.5 -21.5t-80.5 21.5t-56 58.5t-20.5 85zM35 230q0 -69 31.5 -123.5t85.5 -85.5t121 -31q68 0 121.5 31t85 85.5
t31.5 123.5q0 70 -31.5 124t-85 85t-121.5 31q-67 0 -121 -31t-85.5 -85t-31.5 -124z" />
    <glyph glyph-name="uni00C3" unicode="&#xc3;" horiz-adv-x="660" 
d="M165 812l53 -37q0 8 4 20t15 21.5t31 9.5q23 0 39.5 -11.5t35.5 -23.5t46 -12q38 0 66 22.5t40 50.5l-46 43q-30 -48 -56 -48q-20 0 -33 7t-24.5 16.5t-27 16.5t-39.5 7q-34 0 -65 -22.5t-39 -59.5zM189 210h282l89 -210h95l-325 735l-325 -735h95zM223 290l107 252
l107 -252h-214z" />
    <glyph glyph-name="uni0036" unicode="6" horiz-adv-x="576" 
d="M330 700l-236 -325q-20 -28 -32 -65t-12 -80q0 -72 31.5 -126t85.5 -84t121 -30q68 0 121.5 30t85 84t31.5 126q0 65 -28 116t-75 81t-104 30q-23 0 -42.5 -3t-36.5 -13l197 259h-107zM131 230q0 48 20.5 85.5t56 58.5t80.5 21t80.5 -21t56 -58.5t20.5 -85.5t-20.5 -84.5
t-56 -57.5t-80.5 -21t-80.5 21t-56 57.5t-20.5 84.5z" />
    <glyph glyph-name="uni00F6" unicode="&#xf6;" horiz-adv-x="546" 
d="M118 615q0 -22 16.5 -38.5t38.5 -16.5q23 0 39 16.5t16 38.5q0 23 -16 39t-39 16q-22 0 -38.5 -16t-16.5 -39zM318 615q0 -22 16.5 -38.5t38.5 -16.5q23 0 39 16.5t16 38.5q0 23 -16 39t-39 16q-22 0 -38.5 -16t-16.5 -39zM116 230q0 48 20.5 85.5t56 58.5t80.5 21
t80.5 -21t56 -58.5t20.5 -85.5t-20.5 -85t-56 -58.5t-80.5 -21.5t-80.5 21.5t-56 58.5t-20.5 85zM35 230q0 -69 31.5 -123.5t85.5 -85.5t121 -31q68 0 121.5 31t85 85.5t31.5 123.5q0 70 -31.5 124t-85 85t-121.5 31q-67 0 -121 -31t-85.5 -85t-31.5 -124z" />
    <glyph glyph-name="uni00B8" unicode="&#xb8;" horiz-adv-x="350" 
d="M196 60l-85 -168q16 11 33 14.5t24 3.5q50 0 50 -36q0 -18 -12 -29t-38 -11q-19 0 -30.5 6t-25.5 18l-33 -40q21 -21 41 -29.5t48 -8.5q41 0 74 24t33 70q0 37 -24 55.5t-49 18.5h-4.5h-4.5l64 112h-61z" />
    <glyph glyph-name="uni00D6" unicode="&#xd6;" horiz-adv-x="790" 
d="M240 825q0 -22 16.5 -38.5t38.5 -16.5q23 0 39 16.5t16 38.5q0 23 -16 39t-39 16q-22 0 -38.5 -16t-16.5 -39zM440 825q0 -22 16.5 -38.5t38.5 -16.5q23 0 39 16.5t16 38.5q0 23 -16 39t-39 16q-22 0 -38.5 -16t-16.5 -39zM40 350q0 -76 26.5 -142t74.5 -114.5t113 -76
t141 -27.5q77 0 141.5 27.5t112.5 76t74.5 114.5t26.5 142q0 77 -26.5 142.5t-74.5 114t-112.5 76t-141.5 27.5q-76 0 -141 -27.5t-113 -76t-74.5 -114t-26.5 -142.5zM130 350q0 79 34.5 141t94.5 98t136 36q77 0 136.5 -36t94 -98t34.5 -141t-34.5 -141t-94 -98t-136.5 -36
q-76 0 -136 36t-94.5 98t-34.5 141z" />
    <glyph glyph-name="uni0053" unicode="S" horiz-adv-x="548" 
d="M112 226l-72 -43q33 -86 98.5 -139.5t151.5 -53.5q65 0 112.5 25t74 70.5t26.5 104.5q0 48 -17 82.5t-44 58t-58 39.5t-58 26q-42 16 -79 34t-60 41.5t-23 57.5q0 46 26.5 73t78.5 27q39 0 68.5 -16.5t51 -43t36.5 -55.5l69 46q-18 41 -47 75t-70.5 54.5t-98.5 20.5
q-62 0 -107.5 -23t-70.5 -63.5t-25 -93.5q0 -48 17.5 -81t44.5 -54t57.5 -34.5t56.5 -22.5q40 -14 77.5 -33t62 -48t24.5 -74q0 -52 -30 -82.5t-90 -30.5q-65 0 -108 42t-75 114z" />
    <glyph glyph-name="uni00C6" unicode="&#xc6;" horiz-adv-x="960" 
d="M575 340h295v80h-295v200h315v80h-315h-85h-55l-430 -700h95l129 210h261v-210h47h38h315v80h-315v260zM490 637v-347h-212z" />
    <glyph glyph-name="uni00A7" unicode="&#xa7;" horiz-adv-x="408" 
d="M96 161l-66 -38q7 -37 33.5 -67.5t65.5 -48t81 -17.5q74 0 121 33t47 107q0 41 -26 70t-64 49q42 11 66 40t24 81q0 34 -18 59.5t-47 44.5t-62 32q-25 11 -51 23t-43.5 27t-17.5 33q0 23 20 34t50 11q28 0 57 -13t44 -42l64 41q-9 26 -34.5 46t-60 32t-71.5 12t-71 -14.5
t-56 -41.5t-22 -65q0 -46 28 -73.5t65 -44.5q-93 -24 -93 -112q0 -38 20 -66t50.5 -46.5t61.5 -31.5q27 -10 50.5 -22t38.5 -28.5t15 -41.5q0 -30 -21 -44t-59 -14q-43 0 -76.5 27t-42.5 69zM210 447q35 -14 60 -32.5t25 -51.5q0 -27 -19 -54t-51 -33q-33 13 -59.5 32.5
t-26.5 60.5q0 28 17.5 46t53.5 32z" />
    <glyph glyph-name="uni00AF" unicode="&#xaf;" horiz-adv-x="510" 
d="M80 600h350v75h-350v-75z" />
    <glyph glyph-name="uni0060" unicode="`" horiz-adv-x="375" 
d="M75 660l180 -150l45 30l-150 160z" />
    <glyph glyph-name="uni0024" unicode="$" horiz-adv-x="580" 
d="M440 514l69 46q-12 31 -36.5 62t-59 54t-80.5 31v111h-74v-110q-48 -6 -86.5 -30t-60.5 -59.5t-22 -78.5q0 -48 17.5 -82t44.5 -57.5t57.5 -38.5t56.5 -24q40 -14 77.5 -33t62 -48t24.5 -74q0 -52 -30 -82.5t-90 -30.5q-65 0 -108 42t-75 114l-72 -43q29 -74 81.5 -124.5
t122.5 -64.5v-106h74v103q91 8 138 62t47 137q0 48 -17 82.5t-44 58t-58 39.5t-58 26q-42 16 -79 33.5t-60 42t-23 62.5q0 46 27.5 70.5t87.5 24.5q39 0 66 -16.5t46 -43t34 -55.5z" />
    <glyph glyph-name="uni017D" unicode="&#x17d;" horiz-adv-x="545" 
d="M35 620h348l-368 -620h490v80h-348l368 620h-490v-80zM280 855l-110 95l-50 -40l160 -140l160 140l-50 40z" />
    <glyph glyph-name="uni012F" unicode="&#x12f;" horiz-adv-x="260" 
d="M175 -130q-10 -10 -20 -15t-30 -5q-22 0 -35 11.5t-13 38.5q0 28 27 56t66 44v460h-80v-457q-39 -25 -66 -56t-27 -67q0 -44 30 -72t93 -28q32 0 54.5 12.5t33.5 27.5zM75 650q0 -22 16.5 -38.5t38.5 -16.5q23 0 39 16.5t16 38.5q0 23 -16 39t-39 16q-22 0 -38.5 -16
t-16.5 -39z" />
    <glyph glyph-name="uni006A" unicode="j" horiz-adv-x="250" 
d="M-17 -114l-44 -66q11 -15 33.5 -27.5t54.5 -12.5q63 0 98 39t35 121v520h-80v-510q0 -49 -12.5 -69.5t-35.5 -20.5q-12 0 -25 4.5t-24 21.5zM65 650q0 -22 16.5 -38.5t38.5 -16.5q23 0 39 16.5t16 38.5q0 23 -16 39t-39 16q-22 0 -38.5 -16t-16.5 -39z" />
    <glyph glyph-name="uni0121" unicode="&#x121;" 
d="M228 625q0 -22 16.5 -38.5t38.5 -16.5q23 0 39 16.5t16 38.5q0 23 -16 39t-39 16q-22 0 -38.5 -16t-16.5 -39zM116 230q0 53 21.5 90t57.5 56t78 19q35 0 69 -19t56 -56t22 -90t-22 -90t-56 -56t-69 -19q-42 0 -78 19t-57.5 56t-21.5 90zM35 230q0 -74 31 -128t83 -83
t114 -29q51 0 91.5 23t65.5 66v-69q0 -58 -22.5 -94.5t-56.5 -53.5t-69 -17q-45 0 -78 17.5t-51 46t-18 61.5h-81q0 -59 29 -104.5t80.5 -70.5t118.5 -25q58 0 110 27t85 80.5t33 132.5v450h-80v-79q-25 43 -65.5 66t-91.5 23q-62 0 -114 -29t-83 -82.5t-31 -128.5z" />
    <glyph glyph-name="uni00B9" unicode="&#xb9;" horiz-adv-x="470" 
d="M152 611l93 28v-365h51v426l-144 -36v-53z" />
    <glyph glyph-name="uni0040" unicode="@" horiz-adv-x="770" 
d="M35 320q0 -99 38 -173.5t111.5 -115.5t180.5 -41q86 0 138.5 16.5t97.5 43.5l-35 57q-49 -31 -98.5 -41.5t-102.5 -10.5q-79 0 -137.5 32.5t-90.5 92t-32 140.5q0 92 38.5 165.5t108 116.5t163.5 43q84 0 139.5 -36t83 -94t27.5 -125q0 -63 -18.5 -101.5t-42 -55.5
t-38.5 -17q-25 0 -32 14t-7 32q0 13 2 27l41 231h-75l-10 -67q-13 33 -39.5 55t-67.5 22q-42 0 -85.5 -24.5t-73 -71.5t-29.5 -117q0 -49 19.5 -84.5t51 -54t67.5 -18.5q42 0 78 18.5t60 54.5q5 -36 29 -59.5t61 -23.5q28 0 59 13t58.5 41t44.5 74t17 112q0 60 -20 117
t-60 103t-100 73t-140 27q-84 0 -153.5 -30t-120.5 -83t-78.5 -124t-27.5 -153zM266 320q0 43 16.5 74.5t42.5 48.5t53 17q38 0 62.5 -24t24.5 -66q0 -53 -19 -83.5t-46 -43.5t-52 -13q-41 0 -61.5 24t-20.5 66z" />
    <glyph glyph-name="uni00A4" unicode="&#xa4;" horiz-adv-x="580" 
d="M133 300q0 48 20.5 85.5t56 58.5t80.5 21t80.5 -21t56 -58.5t20.5 -85.5t-20.5 -85.5t-56 -58.5t-80.5 -21t-80.5 21t-56 58.5t-20.5 85.5zM87 47l59 59q30 -22 66.5 -34t77.5 -12t77.5 12t66.5 34l59 -59l49 50l-59 59q21 29 33 66t12 78t-12 78t-33 66l59 59l-49 50
l-59 -59q-30 22 -66.5 34t-77.5 12t-77.5 -12t-66.5 -34l-59 59l-50 -50l60 -59q-21 -29 -33 -66t-12 -78t12 -78t33 -66l-60 -59z" />
    <glyph glyph-name="uni00A6" unicode="&#xa6;" horiz-adv-x="274" 
d="M174 245h-74v-240h74v240zM100 695v-240h74v240h-74z" />
    <glyph glyph-name="uni00DB" unicode="&#xdb;" horiz-adv-x="626" 
d="M313 865l110 -95l50 40l-160 140l-160 -140l50 -40zM75 700v-470q0 -69 29.5 -123.5t83 -85.5t125.5 -31q73 0 126 31t82.5 85.5t29.5 123.5v470h-85v-470q0 -72 -39 -116t-114 -44t-114 44t-39 116v470h-85z" />
    <glyph glyph-name="uni0037" unicode="7" horiz-adv-x="525" 
d="M30 620h363l-297 -620h89l335 700h-490v-80z" />
    <glyph glyph-name="uni203A" unicode="&#x203a;" horiz-adv-x="350" 
d="M220 251l-150 -186l50 -45l190 235l-190 235l-50 -45z" />
    <glyph glyph-name="uni0062" unicode="b" 
d="M454 230q0 -53 -21.5 -90t-57 -56t-78.5 -19q-35 0 -69 19t-56 56t-22 90t22 90t56 56t69 19q43 0 78.5 -19t57 -56t21.5 -90zM535 230q0 75 -31 128.5t-82.5 82.5t-114.5 29q-51 0 -91 -23t-66 -66v399h-80v-780h80v79q26 -43 66 -66t91 -23q63 0 114.5 29t82.5 83
t31 128z" />
    <glyph glyph-name="uni011F" unicode="&#x11f;" 
d="M105 670q0 -34 17.5 -66.5t53 -53t87.5 -20.5q53 0 88 20.5t52.5 53t17.5 66.5h-71q0 -13 -7 -30.5t-26 -31t-54 -13.5t-54 13.5t-26 31t-7 30.5h-71zM116 230q0 53 21.5 90t57.5 56t78 19q35 0 69 -19t56 -56t22 -90t-22 -90t-56 -56t-69 -19q-42 0 -78 19t-57.5 56
t-21.5 90zM35 230q0 -74 31 -128t83 -83t114 -29q51 0 91.5 23t65.5 66v-69q0 -58 -22.5 -94.5t-56.5 -53.5t-69 -17q-45 0 -78 17.5t-51 46t-18 61.5h-81q0 -59 29 -104.5t80.5 -70.5t118.5 -25q58 0 110 27t85 80.5t33 132.5v450h-80v-79q-25 43 -65.5 66t-91.5 23
q-62 0 -114 -29t-83 -82.5t-31 -128.5z" />
    <glyph glyph-name="uni004B" unicode="K" horiz-adv-x="565" 
d="M440 700l-275 -301v301h-85v-700h85v340l290 -340h105l-318 372l303 328h-105z" />
    <glyph glyph-name="uni015E" unicode="&#x15e;" horiz-adv-x="548" 
d="M112 226l-72 -43q31 -80 89.5 -132t135.5 -60l-51 -100q16 11 33.5 14.5t24.5 3.5q50 0 50 -36q0 -18 -12 -29t-38 -11q-19 0 -30.5 6t-25.5 18l-34 -40q21 -21 41.5 -29.5t48.5 -8.5q41 0 73.5 24t32.5 70q0 37 -23.5 55.5t-48.5 18.5h-4.5h-4.5l25 45q83 9 132 62.5
t49 135.5q0 48 -17 82.5t-44 58t-58 39.5t-58 26q-42 16 -79 34t-60 41.5t-23 57.5q0 46 26.5 73t78.5 27q39 0 68.5 -16.5t51 -43t36.5 -55.5l69 46q-18 41 -47 75t-70.5 54.5t-98.5 20.5q-62 0 -107.5 -23t-70.5 -63.5t-25 -93.5q0 -48 17.5 -81t44.5 -54t57.5 -34.5
t56.5 -22.5q40 -14 77.5 -33t62 -48t24.5 -74q0 -52 -30 -82.5t-90 -30.5q-65 0 -108 42t-75 114z" />
    <glyph glyph-name="uni00E3.alt" 
d="M35 230q0 -74 31 -128t83 -83t114 -29q54 0 95.5 25.5t66.5 72.5v-88h75v460h-75v-88q-25 47 -66.5 72.5t-95.5 25.5q-62 0 -114 -29t-83 -82.5t-31 -128.5zM116 230q0 53 21.5 90t57.5 56t78 19q35 0 69 -19t56 -56t22 -90t-22 -90t-56 -56t-69 -19q-42 0 -78 19
t-57.5 56t-21.5 90zM118 567l53 -37q0 8 4 20t15 21.5t31 9.5q23 0 39.5 -11.5t35.5 -23.5t46 -12q38 0 66 22.5t40 50.5l-46 43q-30 -48 -56 -48q-20 0 -33 7t-24.5 16.5t-27 16.5t-39.5 7q-34 0 -65 -22.5t-39 -59.5z" />
    <glyph glyph-name="uniFF14" unicode="&#xff14;" horiz-adv-x="580" 
d="M356 215h-198l198 296v-296zM441 140h110v75h-110v485h-35l-388 -560h90h248v-140h85v140z" />
    <glyph glyph-name="uni0128" unicode="&#x128;" horiz-adv-x="245" 
d="M-42 807l53 -37q0 8 4 20t15 21.5t31 9.5q23 0 39.5 -11.5t35.5 -23.5t46 -12q38 0 66 22.5t40 50.5l-46 43q-30 -48 -56 -48q-20 0 -33 7t-24.5 16.5t-27 16.5t-39.5 7q-34 0 -65 -22.5t-39 -59.5zM80 700v-700h85v700h-85z" />
    <glyph glyph-name="uni0029" unicode=")" horiz-adv-x="310" 
d="M105 -200q60 113 87.5 238t27.5 252q0 128 -27.5 253t-87.5 237h-75q53 -112 76.5 -237t23.5 -253q0 -127 -23.5 -252t-76.5 -238h75z" />
    <glyph glyph-name="uni015D" unicode="&#x15d;" horiz-adv-x="403" 
d="M91 161l-66 -38q7 -37 33.5 -67.5t65.5 -48t81 -17.5q74 0 121 33t47 107q0 34 -18 59.5t-47 44.5t-62 32q-25 11 -51 22t-43.5 24.5t-17.5 31.5q0 27 20 38.5t50 11.5q28 0 56.5 -16t44.5 -39l64 41q-9 26 -34.5 46t-60 32t-71.5 12t-71 -14.5t-56 -41.5t-22 -65
t20 -63.5t50.5 -41.5t61.5 -29q27 -10 50.5 -22t38.5 -28.5t15 -41.5q0 -30 -21 -44t-59 -14q-43 0 -76.5 27t-42.5 69zM203 625l110 -95l50 40l-160 140l-160 -140l50 -40z" />
    <glyph glyph-name="uni2158" unicode="&#x2158;" horiz-adv-x="866" 
d="M233 409h-119l119 178v-178zM284 364h66v45h-66v291h-21l-233 -336h54h149v-84h51v84zM690 700l-520 -700h65l520 700h-65zM836 136q0 62 -35.5 102t-89.5 40q-33 0 -62 -16l27 111h159v45h-198l-55 -224q32 23 54.5 30.5t52.5 7.5q41 0 67.5 -26t26.5 -70
q0 -43 -24.5 -69.5t-69.5 -26.5q-34 0 -63 21.5t-43 48.5l-43 -30q21 -36 56 -62t93 -26q61 0 104 36.5t43 107.5z" />
    <glyph glyph-name="uni0116" unicode="&#x116;" horiz-adv-x="550" 
d="M225 825q0 -22 16.5 -38.5t38.5 -16.5q23 0 39 16.5t16 38.5q0 23 -16 39t-39 16q-22 0 -38.5 -16t-16.5 -39zM165 340h295v80h-295v200h315v80h-315h-38h-47v-700h47h38h315v80h-315v260z" />
    <glyph glyph-name="uni013F" unicode="&#x13f;" horiz-adv-x="450" 
d="M80 700v-700h360v80h-275v620h-85zM255 415q0 -22 16.5 -38.5t38.5 -16.5q23 0 39 16.5t16 38.5q0 23 -16 39t-39 16q-22 0 -38.5 -16t-16.5 -39z" />
    <glyph glyph-name="uni0059" unicode="Y" horiz-adv-x="561" 
d="M461 700l-181 -324l-180 324h-95l233 -399v-301h85v302l233 398h-95z" />
    <glyph glyph-name="uni0103" unicode="&#x103;" horiz-adv-x="485" 
d="M90 670q0 -34 17.5 -66.5t53 -53t87.5 -20.5q53 0 88 20.5t52.5 53t17.5 66.5h-71q0 -13 -7 -30.5t-26 -31t-54 -13.5t-54 13.5t-26 31t-7 30.5h-71zM111 352q17 12 52.5 30t84.5 18q38 0 67.5 -17.5t29.5 -52.5v-77q-19 13 -48.5 23t-70.5 10q-55 0 -99.5 -18
t-70.5 -53.5t-26 -89.5q0 -63 43.5 -99t114.5 -36q52 0 94 19.5t63 56.5v-66h80v330q0 67 -49 103.5t-128 36.5q-62 0 -106 -19t-70 -38zM111 135q0 42 29 66t90 24q33 0 61 -6.5t54 -20.5v-18q0 -64 -38.5 -91.5t-98.5 -27.5q-97 0 -97 74z" />
    <glyph glyph-name="uni00EA" unicode="&#xea;" horiz-adv-x="515" 
d="M263 625l110 -95l50 40l-160 140l-160 -140l50 -40zM117 210h362q1 6 1 12v12q0 73 -27 125.5t-76 81.5t-114 29q-59 0 -106.5 -24t-77.5 -67t-40 -100q-2 -12 -3 -24t-1 -25q0 -69 28.5 -123.5t78 -85.5t111.5 -31q60 0 100 14.5t68 41t51 61.5l-65 41
q-23 -37 -58.5 -60t-85.5 -23q-63 0 -102 37.5t-44 107.5zM119 278q6 56 47.5 89t96.5 33q60 0 92 -34t38 -88h-274z" />
    <glyph glyph-name="uni011B" unicode="&#x11b;" horiz-adv-x="515" 
d="M263 615l-110 95l-50 -40l160 -140l160 140l-50 40zM117 210h362q1 6 1 12v12q0 73 -27 125.5t-76 81.5t-114 29q-59 0 -106.5 -24t-77.5 -67t-40 -100q-2 -12 -3 -24t-1 -25q0 -69 28.5 -123.5t78 -85.5t111.5 -31q60 0 100 14.5t68 41t51 61.5l-65 41
q-23 -37 -58.5 -60t-85.5 -23q-63 0 -102 37.5t-44 107.5zM119 278q6 56 47.5 89t96.5 33q60 0 92 -34t38 -88h-274z" />
    <glyph glyph-name="uni2083" unicode="&#x2083;" horiz-adv-x="312" 
d="M159 -6q56 0 93.5 32t37.5 85q0 44 -23 70.5t-60 37.5q33 14 52 39t19 56q0 44 -31 78t-85 34q-52 0 -85.5 -30.5t-33.5 -79.5h49q0 28 20.5 46t49.5 18q32 0 48 -18.5t16 -48.5t-22 -51.5t-63 -21.5v-12v-21v-12q41 0 69 -19.5t28 -58.5q0 -34 -21.5 -54.5t-57.5 -20.5
t-59 19.5t-23 49.5h-52q0 -49 36.5 -83t97.5 -34z" />
    <glyph glyph-name="uni0141" unicode="&#x141;" horiz-adv-x="450" 
d="M80 700v-245l-95 -60l20 -55l75 47v-387h360v80h-275v361l110 69l-20 55l-90 -57v192h-85z" />
    <glyph glyph-name="uni016F" unicode="&#x16f;" horiz-adv-x="525" 
d="M155 180v280h-80v-290q0 -89 43.5 -134.5t114.5 -45.5q45 0 80.5 22.5t56.5 60.5v-73h80v460h-80v-280q0 -49 -32 -82t-85 -33q-98 0 -98 115zM160 630q0 -45 31.5 -72.5t70.5 -27.5t70.5 27.5t31.5 72.5t-31.5 72.5t-70.5 27.5t-70.5 -27.5t-31.5 -72.5zM212 630
q0 25 15.5 39t34.5 14t35.5 -14t16.5 -39t-16.5 -39t-35.5 -14t-34.5 14t-15.5 39z" />
    <glyph glyph-name="uni0158" unicode="&#x158;" horiz-adv-x="560" 
d="M165 355v270h105q68 0 110.5 -35t42.5 -100q0 -64 -42.5 -99.5t-110.5 -35.5h-105zM165 280h85l195 -280h105l-209 288q74 18 120.5 70.5t46.5 131.5q0 65 -31.5 112t-85 72.5t-121.5 25.5h-105h-38h-47v-700h85v280zM255 855l-110 95l-50 -40l160 -140l160 140l-50 40z
" />
    <glyph glyph-name="uni007D" unicode="}" horiz-adv-x="311" 
d="M142 -80q0 -19 -12.5 -34.5t-35.5 -15.5h-35v-70h60q22 0 46 14.5t40.5 45.5t16.5 80v210q0 57 13 80t35 30v60q-22 8 -35 30.5t-13 79.5v210q0 50 -16.5 80.5t-40.5 45t-46 14.5h-60v-70h35q23 0 35.5 -15t12.5 -35v-170q0 -37 3 -77.5t17 -73.5t45 -49
q-31 -15 -45 -48.5t-17 -74t-3 -77.5v-170z" />
    <glyph glyph-name="uniFF17" unicode="&#xff17;" horiz-adv-x="580" 
d="M58 620h362l-296 -620h88l336 700h-490v-80z" />
    <glyph glyph-name="uni002D" unicode="-" horiz-adv-x="210" 
d="M5 200h200v75h-200v-75z" />
    <glyph glyph-name="uni2080" unicode="&#x2080;" horiz-adv-x="372" 
d="M81 210q0 74 28 121t77 47t77 -47t28 -121q0 -73 -28 -120.5t-77 -47.5t-77 47.5t-28 120.5zM30 210q0 -62 20 -111t55 -77t81 -28t81 28t55 77t20 111q0 63 -20 111.5t-55 76.5t-81 28t-81 -28t-55 -76.5t-20 -111.5z" />
    <glyph glyph-name="uni00AD" unicode="&#xad;" horiz-adv-x="210" 
d="M5 200h200v75h-200v-75z" />
    <glyph glyph-name="uni00DC" unicode="&#xdc;" horiz-adv-x="626" 
d="M158 825q0 -22 16.5 -38.5t38.5 -16.5q23 0 39 16.5t16 38.5q0 23 -16 39t-39 16q-22 0 -38.5 -16t-16.5 -39zM358 825q0 -22 16.5 -38.5t38.5 -16.5q23 0 39 16.5t16 38.5q0 23 -16 39t-39 16q-22 0 -38.5 -16t-16.5 -39zM75 700v-470q0 -69 29.5 -123.5t83 -85.5
t125.5 -31q73 0 126 31t82.5 85.5t29.5 123.5v470h-85v-470q0 -72 -39 -116t-114 -44t-114 44t-39 116v470h-85z" />
    <glyph glyph-name="uni2219" unicode="&#x2219;" horiz-adv-x="300" 
d="M95 415q0 -22 16.5 -38.5t38.5 -16.5q23 0 39 16.5t16 38.5q0 23 -16 39t-39 16q-22 0 -38.5 -16t-16.5 -39z" />
    <glyph glyph-name="uni003D" unicode="=" horiz-adv-x="615" 
d="M65 290h485v75h-485v-75zM65 140h485v75h-485v-75z" />
    <glyph glyph-name="uni0057" unicode="W" horiz-adv-x="990" 
d="M700 175l-205 560l-205 -560l-185 525h-95l275 -735l210 544l210 -544l275 735h-95z" />
    <glyph glyph-name="uni010C" unicode="&#x10c;" horiz-adv-x="685" 
d="M390 855l-110 95l-50 -40l160 -140l160 140l-50 40zM130 350q0 82 36.5 143.5t95.5 96.5t128 35q74 0 131 -28.5t94 -75.5v112q-44 39 -96 58t-129 19q-73 0 -136.5 -26.5t-111.5 -75t-75 -114.5t-27 -144t27 -144t75 -114.5t111.5 -75t136.5 -26.5q77 0 129 19t96 58
v112q-37 -46 -94 -75t-131 -29q-69 0 -128 35t-95.5 97t-36.5 143z" />
    <glyph glyph-name="uni00CB" unicode="&#xcb;" horiz-adv-x="550" 
d="M135 845q0 -22 16.5 -38.5t38.5 -16.5q23 0 39 16.5t16 38.5q0 23 -16 39t-39 16q-22 0 -38.5 -16t-16.5 -39zM335 845q0 -22 16.5 -38.5t38.5 -16.5q23 0 39 16.5t16 38.5q0 23 -16 39t-39 16q-22 0 -38.5 -16t-16.5 -39zM165 340h295v80h-295v200h315v80h-315h-38h-47
v-700h47h38h315v80h-315v260z" />
    <glyph glyph-name="uni0103.alt" 
d="M35 230q0 -74 31 -128t83 -83t114 -29q54 0 95.5 25.5t66.5 72.5v-88h75v460h-75v-88q-25 47 -66.5 72.5t-95.5 25.5q-62 0 -114 -29t-83 -82.5t-31 -128.5zM116 230q0 53 21.5 90t57.5 56t78 19q35 0 69 -19t56 -56t22 -90t-22 -90t-56 -56t-69 -19q-42 0 -78 19
t-57.5 56t-21.5 90zM105 670q0 -34 17.5 -66.5t53 -53t87.5 -20.5q53 0 88 20.5t52.5 53t17.5 66.5h-71q0 -13 -7 -30.5t-26 -31t-54 -13.5t-54 13.5t-26 31t-7 30.5h-71z" />
    <glyph glyph-name="uni0146" unicode="&#x146;" horiz-adv-x="525" 
d="M370 280v-280h80v290q0 89 -43.5 134.5t-114.5 45.5q-42 0 -77.5 -19t-59.5 -53v62h-80v-460h80v280q0 50 32.5 82.5t84.5 32.5q98 0 98 -115zM266 -60l-88 -259l58 -21l110 250z" />
    <glyph glyph-name="uni005B" unicode="[" horiz-adv-x="300" 
d="M179 705h101v75h-180v-1000h180v75h-101v850z" />
    <glyph glyph-name="uni2088" unicode="&#x2088;" horiz-adv-x="322" 
d="M45 319q0 -34 16 -58.5t44 -36.5q-32 -13 -53.5 -41t-21.5 -69q0 -32 17 -59.5t47 -44t67 -16.5q38 0 67.5 16.5t46.5 44t17 59.5q0 41 -21.5 69t-53.5 41q28 12 44 36.5t16 58.5q0 44 -33 75.5t-83 31.5q-49 0 -82.5 -31.5t-33.5 -75.5zM94 313q0 30 19 49t48 19t48 -19
t19 -49t-20 -48.5t-47 -18.5t-47 18.5t-20 48.5zM79 120q0 35 25.5 58t56.5 23q32 0 57 -23t25 -58q0 -39 -25 -60t-57 -21q-31 0 -56.5 21t-25.5 60z" />
    <glyph glyph-name="uni006E" unicode="n" horiz-adv-x="525" 
d="M370 280v-280h80v290q0 89 -43.5 134.5t-114.5 45.5q-45 0 -80.5 -22.5t-56.5 -60.5v73h-80v-460h80v280q0 50 32.5 82.5t84.5 32.5q98 0 98 -115z" />
    <glyph glyph-name="uni02DB" unicode="&#x2db;" horiz-adv-x="260" 
d="M194 -130q-10 -10 -20 -15t-30 -5q-22 0 -35 11.5t-13 38.5q0 28 27 56t66 44l-41 25q-35 -18 -65 -40.5t-48.5 -48.5t-18.5 -56q0 -44 30 -72t93 -28q32 0 54.5 12.5t33.5 27.5z" />
    <glyph glyph-name="uni0108" unicode="&#x108;" horiz-adv-x="685" 
d="M390 865l110 -95l50 40l-160 140l-160 -140l50 -40zM130 350q0 82 36.5 143.5t95.5 96.5t128 35q74 0 131 -28.5t94 -75.5v112q-44 39 -96 58t-129 19q-73 0 -136.5 -26.5t-111.5 -75t-75 -114.5t-27 -144t27 -144t75 -114.5t111.5 -75t136.5 -26.5q77 0 129 19t96 58
v112q-37 -46 -94 -75t-131 -29q-69 0 -128 35t-95.5 97t-36.5 143z" />
    <glyph glyph-name="uni00F9" unicode="&#xf9;" horiz-adv-x="525" 
d="M142 700l180 -150l46 30l-150 160zM155 180v280h-80v-290q0 -89 43.5 -134.5t114.5 -45.5q42 0 77.5 19t59.5 53v-62h80v460h-80v-280q0 -49 -32 -82t-85 -33q-98 0 -98 115z" />
    <glyph glyph-name="uni00D9" unicode="&#xd9;" horiz-adv-x="626" 
d="M183 920l180 -150l45 30l-150 160zM75 700v-470q0 -69 29.5 -123.5t83 -85.5t125.5 -31q73 0 126 31t82.5 85.5t29.5 123.5v470h-85v-470q0 -72 -39 -116t-114 -44t-114 44t-39 116v470h-85z" />
    <glyph glyph-name="uni0020" unicode=" " horiz-adv-x="300" 
 />
    <glyph glyph-name="uni0025" unicode="%" horiz-adv-x="751" 
d="M563 700l-450 -700h75l450 700h-75zM471 150q0 38 23 66.5t64 28.5t64 -28.5t23 -66.5t-23 -66.5t-64 -28.5t-64 28.5t-23 66.5zM400 150q0 -44 19.5 -80.5t55.5 -58t83 -21.5q48 0 83.5 21.5t55 58t19.5 80.5q0 45 -19.5 81t-55 57.5t-83.5 21.5q-47 0 -83 -21.5
t-55.5 -57.5t-19.5 -81zM106 550q0 38 23 66.5t64 28.5t64 -28.5t23 -66.5t-23 -66.5t-64 -28.5t-64 28.5t-23 66.5zM35 550q0 -44 19.5 -80.5t55.5 -58t83 -21.5q48 0 83.5 21.5t55 58t19.5 80.5q0 45 -19.5 81t-55 57.5t-83.5 21.5q-47 0 -83 -21.5t-55.5 -57.5t-19.5 -81
z" />
    <glyph glyph-name="uni005F" unicode="_" horiz-adv-x="500" 
d="M0 -133h500v55h-500v-55z" />
    <glyph glyph-name="uniFF19" unicode="&#xff19;" horiz-adv-x="580" 
d="M447 470q0 -48 -20.5 -85t-56 -58.5t-80.5 -21.5t-80.5 21.5t-56 58.5t-20.5 85t20.5 84.5t56 57.5t80.5 21t80.5 -21t56 -57.5t20.5 -84.5zM248 0l236 325q20 28 32 65t12 80q0 72 -31.5 126t-85 84t-121.5 30q-67 0 -121 -30t-85.5 -84t-31.5 -126q0 -64 28 -115.5
t75 -81.5t104 -30q23 0 43 3t36 13l-197 -259h107z" />
    <glyph glyph-name="uni0213" unicode="&#x213;" horiz-adv-x="343" 
d="M294 372l44 66q-18 19 -39.5 25.5t-46.5 6.5q-26 0 -51.5 -17t-45.5 -46v53h-80v-460h80v280q0 50 16 82.5t61 32.5q20 0 33 -5.5t29 -17.5zM49 530h71q0 13 7 30.5t26 31t54 13.5t54 -13.5t26 -31t7 -30.5h71q0 35 -17.5 67t-52.5 52.5t-88 20.5q-52 0 -87.5 -20.5
t-53 -52.5t-17.5 -67z" />
    <glyph glyph-name="uni0124" unicode="&#x124;" horiz-adv-x="715" 
d="M358 865l110 -95l50 40l-160 140l-160 -140l50 -40zM80 700v-700h85v340h385v-340h85v700h-85v-280h-385v280h-85z" />
    <glyph glyph-name="uni00D7" unicode="&#xd7;" horiz-adv-x="596" 
d="M121 22l177 182l177 -182l56 56l-182 177l182 177l-56 56l-177 -182l-177 182l-56 -56l182 -177l-182 -177z" />
    <glyph glyph-name="uni011E" unicode="&#x11e;" horiz-adv-x="775" 
d="M237 910q0 -34 17.5 -66.5t53 -53t87.5 -20.5q53 0 88 20.5t52.5 53t17.5 66.5h-71q0 -13 -7 -30.5t-26 -31t-54 -13.5t-54 13.5t-26 31t-7 30.5h-71zM405 275h233q-11 -54 -42 -99.5t-81 -73t-120 -27.5q-74 0 -134 35t-95.5 97t-35.5 143q0 82 35.5 143.5t95.5 96.5
t134 35q80 0 139 -31.5t92 -87.5l60 55q-45 73 -119.5 111t-171.5 38q-76 0 -141 -26.5t-113 -75t-74.5 -114.5t-26.5 -144t26.5 -144t74.5 -114.5t113 -75t141 -26.5q80 0 142.5 29.5t105.5 80.5t65 116.5t22 138.5h-325v-80z" />
    <glyph glyph-name="uni00BD" unicode="&#xbd;" horiz-adv-x="819" 
d="M493 2h296v48h-191l133 136q25 26 40.5 55t15.5 61q0 28 -13 57.5t-41 49.5t-74 20q-65 0 -103.5 -42t-38.5 -109h51q0 48 25.5 75.5t65.5 27.5q38 0 57 -23.5t19 -51.5q0 -25 -11.5 -47.5t-32.5 -44.5zM30 611l93 28v-365h51v426l-144 -36v-53zM618 700l-520 -700h65
l520 700h-65z" />
    <glyph glyph-name="uni2014" unicode="&#x2014;" horiz-adv-x="890" 
d="M70 200h750v75h-750v-75z" />
    <glyph glyph-name="uni0237" unicode="&#x237;" horiz-adv-x="250" 
d="M-17 -114l-44 -66q11 -15 33.5 -27.5t54.5 -12.5q63 0 98 39t35 121v520h-80v-510q0 -49 -12.5 -69.5t-35.5 -20.5q-12 0 -25 4.5t-24 21.5z" />
    <glyph glyph-name="uni0133" unicode="&#x133;" horiz-adv-x="510" 
d="M90 460v-460h80v460h-80zM75 650q0 -22 16.5 -38.5t38.5 -16.5q23 0 39 16.5t16 38.5q0 23 -16 39t-39 16q-22 0 -38.5 -16t-16.5 -39zM243 -114l-44 -66q11 -15 33.5 -27.5t54.5 -12.5q63 0 98 39t35 121v520h-80v-510q0 -49 -12.5 -69.5t-35.5 -20.5q-12 0 -25 4.5
t-24 21.5zM325 650q0 -22 16.5 -38.5t38.5 -16.5q23 0 39 16.5t16 38.5q0 23 -16 39t-39 16q-22 0 -38.5 -16t-16.5 -39z" />
    <glyph glyph-name="uni00A0" unicode="&#xa0;" horiz-adv-x="300" 
 />
    <glyph glyph-name="uni0100" unicode="&#x100;" horiz-adv-x="660" 
d="M155 795h350v75h-350v-75zM189 210h282l89 -210h95l-325 735l-325 -735h95zM223 290l107 252l107 -252h-214z" />
    <glyph glyph-name="uni2021" unicode="&#x2021;" 
d="M245 700v-160h-155v-75h155v-345h-155v-75h155v-195h80v195h155v75h-155v345h155v75h-155v160h-80z" />
    <glyph glyph-name="uni007A" unicode="z" horiz-adv-x="460" 
d="M300 385l-285 -385h410v75h-265l285 385h-400v-75h255z" />
    <glyph glyph-name="uni2039" unicode="&#x2039;" horiz-adv-x="350" 
d="M130 259l150 186l-50 45l-190 -235l190 -235l50 45z" />
    <glyph glyph-name="uni0219" unicode="&#x219;" horiz-adv-x="403" 
d="M91 161l-66 -38q7 -37 33.5 -67.5t65.5 -48t81 -17.5q74 0 121 33t47 107q0 34 -18 59.5t-47 44.5t-62 32q-25 11 -51 22t-43.5 24.5t-17.5 31.5q0 27 20 38.5t50 11.5q28 0 56.5 -16t44.5 -39l64 41q-9 26 -34.5 46t-60 32t-71.5 12t-71 -14.5t-56 -41.5t-22 -65
t20 -63.5t50.5 -41.5t61.5 -29q27 -10 50.5 -22t38.5 -28.5t15 -41.5q0 -30 -21 -44t-59 -14q-43 0 -76.5 27t-42.5 69zM209 -70l-88 -259l58 -21l110 250z" />
    <glyph glyph-name="uni017E" unicode="&#x17e;" horiz-adv-x="460" 
d="M245 615l-110 95l-50 -40l160 -140l160 140l-50 40zM300 385l-285 -385h410v75h-265l285 385h-400v-75h255z" />
    <glyph glyph-name="uni002B" unicode="+" horiz-adv-x="615" 
d="M265 500v-205h-200v-80h200v-205h85v205h200v80h-200v205h-85z" />
    <glyph glyph-name="uni0132" unicode="&#x132;" horiz-adv-x="490" 
d="M80 700v-700h85v700h-85zM183 -104l-44 -66q11 -15 44.5 -32.5t73.5 -17.5q71 0 112 39t41 121v760h-80v-750q0 -49 -22.5 -69.5t-45.5 -20.5q-57 0 -79 36z" />
    <glyph glyph-name="uni0021" unicode="!" horiz-adv-x="300" 
d="M95 40q0 -22 16.5 -38.5t38.5 -16.5q23 0 39 16.5t16 38.5q0 23 -16 39t-39 16q-22 0 -38.5 -16t-16.5 -39zM100 700l20 -500h60l20 500h-100z" />
    <glyph glyph-name="uni0136" unicode="&#x136;" horiz-adv-x="565" 
d="M324 -60l-88 -259l58 -21l110 250zM440 700l-275 -301v301h-85v-700h85v340l290 -340h105l-318 372l303 328h-105z" />
    <glyph glyph-name="uni0109" unicode="&#x109;" horiz-adv-x="478" 
d="M268 625l110 -95l50 40l-160 140l-160 -140l50 -40zM111 230q0 48 20.5 85.5t56 58.5t80.5 21q56 0 100 -25t60 -59v100q-24 28 -68.5 43.5t-91.5 15.5q-67 0 -121 -31t-85.5 -85t-31.5 -124q0 -69 31.5 -123.5t85.5 -85.5t121 -31q47 0 91.5 15.5t68.5 43.5v100
q-16 -34 -60 -59t-100 -25q-45 0 -80.5 21.5t-56 58.5t-20.5 85z" />
    <glyph glyph-name="uni012B" unicode="&#x12b;" horiz-adv-x="260" 
d="M-45 530h350v75h-350v-75zM90 460v-460h80v460h-80z" />
    <glyph glyph-name="uni2081" unicode="&#x2081;" horiz-adv-x="314" 
d="M90 338l93 28v-365h51v426l-144 -36v-53z" />
    <glyph glyph-name="uni00FC" unicode="&#xfc;" horiz-adv-x="525" 
d="M108 605q0 -22 16 -38.5t38 -16.5q23 0 39.5 16.5t16.5 38.5q0 23 -16.5 39t-39.5 16q-22 0 -38 -16t-16 -39zM308 605q0 -22 16 -38.5t38 -16.5q23 0 39.5 16.5t16.5 38.5q0 23 -16.5 39t-39.5 16q-22 0 -38 -16t-16 -39zM155 180v280h-80v-290q0 -89 43.5 -134.5
t114.5 -45.5q42 0 77.5 19t59.5 53v-62h80v460h-80v-280q0 -49 -32 -82t-85 -33q-98 0 -98 115z" />
    <glyph glyph-name="uni015F" unicode="&#x15f;" horiz-adv-x="403" 
d="M88 163l-63 -39q23 -51 66.5 -87t98.5 -44l-50 -101q16 11 32.5 14.5t23.5 3.5q50 0 50 -36q0 -18 -12 -29t-38 -11q-19 0 -30.5 6t-25.5 18l-32 -40q21 -21 40.5 -29.5t47.5 -8.5q41 0 74.5 24t33.5 70q0 37 -24.5 55.5t-49.5 18.5h-4h-4l26 45q55 7 90 40.5t35 97.5
q0 39 -18 65t-47 44t-62 31q-25 11 -51.5 20.5t-44.5 23t-18 35.5q0 27 21 37.5t51 10.5q28 0 56.5 -17.5t44.5 -40.5l64 41q-21 38 -66 64t-100 26q-37 0 -71 -13t-56 -40.5t-22 -70.5t20 -68t50.5 -39.5t61.5 -27.5q27 -10 50.5 -22t38.5 -28t15 -40q0 -29 -21.5 -42.5
t-53.5 -13.5q-33 0 -68 27.5t-59 69.5z" />
    <glyph glyph-name="uni0051" unicode="Q" horiz-adv-x="790" 
d="M379 300l174 -174q-32 -24 -72 -37.5t-86 -13.5q-76 0 -136 36t-94.5 98t-34.5 141t34.5 141t94.5 98t136 36q77 0 136.5 -36t94 -98t34.5 -141q0 -49 -13.5 -91.5t-38.5 -77.5l-119 119h-110zM40 350q0 -76 26.5 -142t74.5 -114.5t113 -76t141 -27.5q64 0 119.5 20
t100.5 54l64 -64h110l-118 118q38 47 58.5 106t20.5 126q0 77 -26.5 142.5t-74.5 114t-112.5 76t-141.5 27.5q-76 0 -141 -27.5t-113 -76t-74.5 -114t-26.5 -142.5z" />
    <glyph glyph-name="uni010E" unicode="&#x10e;" horiz-adv-x="680" 
d="M330 855l-110 95l-50 -40l160 -140l160 140l-50 40zM127 0h38h125q102 0 181 44t124 122.5t45 183.5t-45 183.5t-124 122.5t-181 44h-125h-38h-47v-700h47zM165 85v530h125q79 0 138.5 -32.5t93 -91.5t33.5 -141q0 -81 -33.5 -140.5t-93 -92t-138.5 -32.5h-125z" />
    <glyph glyph-name="uni003F" unicode="?" horiz-adv-x="557" 
d="M195 40q0 -22 16.5 -38.5t38.5 -16.5q23 0 39 16.5t16 38.5q0 23 -16 39t-39 16q-22 0 -38.5 -16t-16.5 -39zM416 500q0 -38 -23 -73.5t-66 -58.5t-103 -23h-26l20 -175h60l7 120q56 3 104 31.5t78 75t30 103.5q0 60 -28.5 107.5t-77.5 75t-112 27.5q-59 0 -99.5 -14.5
t-68.5 -41t-51 -61.5l65 -41q23 38 58.5 60.5t85.5 22.5q68 0 107.5 -35t39.5 -100z" />
    <glyph glyph-name="uni00D4" unicode="&#xd4;" horiz-adv-x="790" 
d="M395 865l110 -95l50 40l-160 140l-160 -140l50 -40zM40 350q0 -76 26.5 -142t74.5 -114.5t113 -76t141 -27.5q77 0 141.5 27.5t112.5 76t74.5 114.5t26.5 142q0 77 -26.5 142.5t-74.5 114t-112.5 76t-141.5 27.5q-76 0 -141 -27.5t-113 -76t-74.5 -114t-26.5 -142.5z
M130 350q0 79 34.5 141t94.5 98t136 36q77 0 136.5 -36t94 -98t34.5 -141t-34.5 -141t-94 -98t-136.5 -36q-76 0 -136 36t-94.5 98t-34.5 141z" />
    <glyph glyph-name="uni00C2" unicode="&#xc2;" horiz-adv-x="660" 
d="M330 850l110 -95l50 40l-160 140l-160 -140l50 -40zM189 210h282l89 -210h95l-325 735l-325 -735h95zM223 290l107 252l107 -252h-214z" />
    <glyph glyph-name="uni0042" unicode="B" horiz-adv-x="558" 
d="M352 382q54 16 85 52.5t31 90.5q0 89 -57 132t-151 43h-180v-700h190q68 0 121.5 22.5t85 68t31.5 114.5q0 76 -43 119.5t-113 57.5zM165 343h105q68 0 110.5 -34t42.5 -99q0 -64 -42.5 -99.5t-110.5 -35.5h-105v268zM165 417v208h95q53 0 88 -27.5t35 -77.5
q0 -49 -35 -76t-88 -27h-95z" />
    <glyph glyph-name="uni00E1.alt" 
d="M35 230q0 -74 31 -128t83 -83t114 -29q54 0 95.5 25.5t66.5 72.5v-88h75v460h-75v-88q-25 47 -66.5 72.5t-95.5 25.5q-62 0 -114 -29t-83 -82.5t-31 -128.5zM116 230q0 53 21.5 90t57.5 56t78 19q35 0 69 -19t56 -56t22 -90t-22 -90t-56 -56t-69 -19q-42 0 -78 19
t-57.5 56t-21.5 90zM393 680l-75 40l-150 -160l45 -30z" />
    <glyph glyph-name="uni00FD" unicode="&#xfd;" horiz-adv-x="440" 
d="M350 700l-75 40l-150 -160l45 -30zM440 460h-90l-126 -317l-129 317h-95l176 -395l-126 -285h90z" />
    <glyph glyph-name="uni00BC" unicode="&#xbc;" horiz-adv-x="754" 
d="M30 611l93 28v-365h51v426l-144 -36v-53zM618 700l-520 -700h65l520 700h-65zM652 84h66v45h-66v291h-21l-233 -336h54h149v-84h51v84zM601 129h-119l119 178v-178z" />
    <glyph glyph-name="uni007B" unicode="{" horiz-adv-x="311" 
d="M178 660q0 20 13 35t35 15h35v70h-60q-22 0 -46 -14.5t-40.5 -45t-16.5 -80.5v-210q0 -57 -12.5 -79.5t-35.5 -30.5v-60q23 -7 35.5 -30t12.5 -80v-210q0 -49 16.5 -80t40.5 -45.5t46 -14.5h60v70h-35q-22 0 -35 15.5t-13 34.5v170q0 37 -3 77.5t-16.5 74t-45.5 48.5
q32 16 45.5 49t16.5 73.5t3 77.5v170z" />
    <glyph glyph-name="uni2150" unicode="&#x2150;" horiz-adv-x="842" 
d="M568 700l-520 -700h65l520 700h-65zM30 611l93 28v-365h51v426l-144 -36v-53zM518 372h218l-178 -372h53l201 420h-294v-48z" />
    <glyph glyph-name="uni0058" unicode="X" horiz-adv-x="555" 
d="M430 700l-149 -259l-146 259h-100l203 -333l-228 -367h100l170 293l165 -293h100l-222 367l207 333h-100z" />
    <glyph glyph-name="uni0157" unicode="&#x157;" horiz-adv-x="343" 
d="M294 372l44 66q-18 19 -39.5 25.5t-46.5 6.5q-26 0 -51.5 -17t-45.5 -46v53h-80v-460h80v280q0 50 16 82.5t61 32.5q20 0 33 -5.5t29 -17.5zM119 -60l-88 -259l58 -21l110 250z" />
    <glyph glyph-name="uni005E" unicode="^" horiz-adv-x="510" 
d="M255 621l110 -161h80l-170 250h-40l-170 -250h80z" />
    <glyph glyph-name="uni2084" unicode="&#x2084;" horiz-adv-x="386" 
d="M233 129h-119l119 178v-178zM284 84h66v45h-66v291h-21l-233 -336h54h149v-84h51v84z" />
    <glyph glyph-name="uni00CA" unicode="&#xca;" horiz-adv-x="550" 
d="M290 865l110 -95l50 40l-160 140l-160 -140l50 -40zM165 340h295v80h-295v200h315v80h-315h-38h-47v-700h47h38h315v80h-315v260z" />
    <glyph glyph-name="uni011A" unicode="&#x11a;" horiz-adv-x="550" 
d="M280 855l-110 95l-50 -40l160 -140l160 140l-50 40zM165 340h295v80h-295v200h315v80h-315h-38h-47v-700h47h38h315v80h-315v260z" />
    <glyph glyph-name="uni005D" unicode="]" horiz-adv-x="300" 
d="M121 -145h-101v-75h180v1000h-180v-75h101v-850z" />
    <glyph glyph-name="uni004E" unicode="N" horiz-adv-x="775" 
d="M610 700v-521l-530 556v-735h85v521l530 -556v735h-85z" />
    <glyph glyph-name="uni00D1" unicode="&#xd1;" horiz-adv-x="775" 
d="M215 792l53 -37q0 8 4 20t15 21.5t31 9.5q23 0 39.5 -11.5t35.5 -23.5t46 -12q38 0 66 22.5t40 50.5l-46 43q-30 -48 -56 -48q-20 0 -33 7t-24.5 16.5t-27 16.5t-39.5 7q-34 0 -65 -22.5t-39 -59.5zM610 700v-521l-530 556v-735h85v521l530 -556v735h-85z" />
    <glyph glyph-name="uni017A" unicode="&#x17a;" horiz-adv-x="460" 
d="M300 385l-285 -385h410v75h-265l285 385h-400v-75h255zM405 700l-75 40l-150 -160l45 -30z" />
    <glyph glyph-name="uni2075" unicode="&#x2075;" horiz-adv-x="356" 
d="M326 416q0 62 -35.5 102t-89.5 40q-33 0 -62 -16l27 111h159v45h-198l-55 -224q32 23 54.5 30.5t52.5 7.5q41 0 67.5 -26t26.5 -70q0 -43 -24.5 -69.5t-69.5 -26.5q-34 0 -63 21.5t-43 48.5l-43 -30q21 -36 56 -62t93 -26q61 0 104 36.5t43 107.5z" />
    <glyph glyph-name="uniFF13" unicode="&#xff13;" horiz-adv-x="580" 
d="M300 -10q63 0 112 24t77.5 68t28.5 103q0 74 -38.5 117.5t-99.5 62.5q55 23 86.5 65t31.5 94q0 50 -23.5 92t-67 68t-103.5 26q-57 0 -101.5 -23.5t-70 -64.5t-25.5 -96h81q0 46 34 76.5t83 30.5q53 0 79.5 -31t26.5 -81q0 -49 -36.5 -85t-104.5 -36v-20v-35v-20
q68 0 114.5 -32.5t46.5 -97.5q0 -57 -35.5 -91t-95.5 -34t-98.5 33t-38.5 82h-86q0 -54 27.5 -98.5t78 -70.5t117.5 -26z" />
    <glyph glyph-name="uni0052" unicode="R" horiz-adv-x="560" 
d="M165 280h85l195 -280h105l-209 288q74 18 120.5 70.5t46.5 131.5q0 65 -31.5 112t-85 72.5t-121.5 25.5h-105h-38h-47v-700h85v280zM165 355v270h105q68 0 110.5 -35t42.5 -100q0 -64 -42.5 -99.5t-110.5 -35.5h-105z" />
    <glyph glyph-name="uni015C" unicode="&#x15c;" horiz-adv-x="548" 
d="M112 226l-72 -43q33 -86 98.5 -139.5t151.5 -53.5q104 0 158.5 55.5t54.5 144.5q0 48 -17 82.5t-44 58t-58 39.5t-58 26q-42 16 -79 34t-60 41.5t-23 57.5q0 46 31.5 73t83.5 27q39 0 66 -16.5t46 -43t34 -55.5l69 46q-14 36 -43.5 70.5t-72.5 57t-100 22.5t-103 -21.5
t-73 -61t-27 -92.5q0 -45 17.5 -78t44.5 -56t57.5 -38.5t56.5 -24.5q40 -14 77.5 -33t62 -48t24.5 -74q0 -52 -30 -82.5t-90 -30.5q-65 0 -108 42t-75 114zM278 865l110 -95l50 40l-160 140l-160 -140l50 -40z" />
    <glyph glyph-name="uni00E0.alt" 
d="M35 230q0 -74 31 -128t83 -83t114 -29q54 0 95.5 25.5t66.5 72.5v-88h75v460h-75v-88q-25 47 -66.5 72.5t-95.5 25.5q-62 0 -114 -29t-83 -82.5t-31 -128.5zM116 230q0 53 21.5 90t57.5 56t78 19q35 0 69 -19t56 -56t22 -90t-22 -90t-56 -56t-69 -19q-42 0 -78 19
t-57.5 56t-21.5 90zM113 680l180 -150l45 30l-150 160z" />
    <glyph glyph-name="uni013B" unicode="&#x13b;" horiz-adv-x="450" 
d="M80 700v-700h360v80h-275v620h-85zM264 -60l-88 -259l58 -21l110 250z" />
    <glyph glyph-name="uni215A" unicode="&#x215a;" horiz-adv-x="856" 
d="M690 700l-520 -700h65l520 700h-65zM326 416q0 62 -35.5 102t-89.5 40q-33 0 -62 -16l27 111h159v45h-198l-55 -224q32 23 54.5 30.5t52.5 7.5q41 0 67.5 -26t26.5 -70q0 -43 -24.5 -69.5t-69.5 -26.5q-34 0 -63 21.5t-43 48.5l-43 -30q21 -36 56 -62t93 -26
q61 0 104 36.5t43 107.5zM595 136q0 44 27 71.5t67 27.5q41 0 67.5 -27.5t26.5 -71.5q0 -43 -26.5 -70.5t-67.5 -27.5q-40 0 -67 27.5t-27 70.5zM714 418l-141 -195q-12 -16 -19.5 -38.5t-7.5 -48.5q0 -64 41 -104t102 -40t102 40t41 104q0 39 -17 69.5t-45 48.5t-62 18
q-14 0 -26 -2t-22 -8l119 156h-65z" />
    <glyph glyph-name="uni203D" unicode="&#x203d;" horiz-adv-x="557" 
d="M200 510l20 -340h60l7 120q55 4 103 32t77.5 74.5t29.5 103.5q0 60 -28.5 107.5t-77.5 75t-112 27.5q-59 0 -99.5 -14.5t-68.5 -41t-51 -61.5l65 -41q23 38 58.5 60.5t85.5 22.5q68 0 107.5 -35t39.5 -100q0 -46 -33 -87.5t-92 -58.5l9 156h-100zM195 40
q0 -22 16.5 -38.5t38.5 -16.5q23 0 39 16.5t16 38.5q0 23 -16 39t-39 16q-22 0 -38.5 -16t-16.5 -39z" />
    <glyph glyph-name="uni003B" unicode=";" horiz-adv-x="330" 
d="M148 110l-88 -259l58 -21l110 250zM125 420q0 -22 16.5 -38.5t38.5 -16.5q23 0 39 16.5t16 38.5q0 23 -16 39t-39 16q-22 0 -38.5 -16t-16.5 -39z" />
    <glyph glyph-name="uni0115" unicode="&#x115;" horiz-adv-x="515" 
d="M105 670q0 -34 17.5 -66.5t53 -53t87.5 -20.5q53 0 88 20.5t52.5 53t17.5 66.5h-71q0 -13 -7 -30.5t-26 -31t-54 -13.5t-54 13.5t-26 31t-7 30.5h-71zM117 210h362q1 6 1 12v12q0 73 -27 125.5t-76 81.5t-114 29q-59 0 -106.5 -24t-77.5 -67t-40 -100q-2 -12 -3 -24
t-1 -25q0 -69 28.5 -123.5t78 -85.5t111.5 -31q60 0 100 14.5t68 41t51 61.5l-65 41q-23 -37 -58.5 -60t-85.5 -23q-63 0 -102 37.5t-44 107.5zM119 278q6 56 47.5 89t96.5 33q60 0 92 -34t38 -88h-274z" />
    <glyph glyph-name="uni0050" unicode="P" horiz-adv-x="548" 
d="M165 280h105q68 0 121.5 25.5t85 73t31.5 111.5q0 65 -31.5 112t-85 72.5t-121.5 25.5h-105h-38h-47v-700h85v280zM165 360v260h105q68 0 110.5 -32.5t42.5 -97.5q0 -64 -42.5 -97t-110.5 -33h-105z" />
    <glyph glyph-name="uni00EE" unicode="&#xee;" horiz-adv-x="260" 
d="M130 635l110 -95l50 40l-160 140l-160 -140l50 -40zM90 460v-460h80v460h-80z" />
    <glyph glyph-name="uni0101.alt" 
d="M35 230q0 -74 31 -128t83 -83t114 -29q54 0 95.5 25.5t66.5 72.5v-88h75v460h-75v-88q-25 47 -66.5 72.5t-95.5 25.5q-62 0 -114 -29t-83 -82.5t-31 -128.5zM116 230q0 53 21.5 90t57.5 56t78 19q35 0 69 -19t56 -56t22 -90t-22 -90t-56 -56t-69 -19q-42 0 -78 19
t-57.5 56t-21.5 90zM98 530h350v75h-350v-75z" />
    <glyph glyph-name="uni00DF" unicode="&#xdf;" 
d="M272 65v-75q68 0 125.5 30t92.5 83t35 122q0 77 -43.5 133t-114.5 82q118 37 118 166q0 82 -53.5 133t-154.5 51q-52 0 -97 -23.5t-72.5 -64.5t-27.5 -96v-606h80v606q0 38 17 62t43.5 35.5t56.5 11.5q68 0 97.5 -34.5t29.5 -84.5q0 -28 -15 -54.5t-48.5 -44t-88.5 -17.5
v-20v-35v-20q55 0 98.5 -24.5t68.5 -63.5t25 -82q0 -53 -26.5 -91t-66 -58.5t-79.5 -20.5z" />
    <glyph glyph-name="uni0102" unicode="&#x102;" horiz-adv-x="660" 
d="M172 935q0 -34 17.5 -66.5t53 -53t87.5 -20.5q53 0 88 20.5t52.5 53t17.5 66.5h-71q0 -13 -7 -30.5t-26 -31t-54 -13.5t-54 13.5t-26 31t-7 30.5h-71zM189 210h282l89 -210h95l-325 735l-325 -735h95zM223 290l107 252l107 -252h-214z" />
    <glyph glyph-name="uni00CD" unicode="&#xcd;" horiz-adv-x="245" 
d="M252 920l-74 40l-150 -160l44 -30zM80 700v-700h85v700h-85z" />
    <glyph glyph-name="uni0117" unicode="&#x117;" horiz-adv-x="515" 
d="M208 585q0 -22 16.5 -38.5t38.5 -16.5q23 0 39 16.5t16 38.5q0 23 -16 39t-39 16q-22 0 -38.5 -16t-16.5 -39zM117 210h362q1 6 1 12v12q0 73 -27 125.5t-76 81.5t-114 29q-59 0 -106.5 -24t-77.5 -67t-40 -100q-2 -12 -3 -24t-1 -25q0 -69 28.5 -123.5t78 -85.5
t111.5 -31q60 0 100 14.5t68 41t51 61.5l-65 41q-23 -37 -58.5 -60t-85.5 -23q-63 0 -102 37.5t-44 107.5zM119 278q6 56 47.5 89t96.5 33q60 0 92 -34t38 -88h-274z" />
    <glyph glyph-name="uni00BB" unicode="&#xbb;" horiz-adv-x="510" 
d="M380 251l-150 -186l50 -45l190 235l-190 235l-50 -45zM220 251l-150 -186l50 -45l190 235l-190 235l-50 -45z" />
    <glyph glyph-name="uni2087" unicode="&#x2087;" horiz-adv-x="354" 
d="M30 372h218l-178 -372h53l201 420h-294v-48z" />
    <glyph glyph-name="uniFF11" unicode="&#xff11;" horiz-adv-x="580" 
d="M115 562l155 46v-608h85v710l-240 -60v-88z" />
    <glyph glyph-name="uni00EF" unicode="&#xef;" horiz-adv-x="260" 
d="M-25 615q0 -22 16.5 -38.5t38.5 -16.5q23 0 39 16.5t16 38.5q0 23 -16 39t-39 16q-22 0 -38.5 -16t-16.5 -39zM175 615q0 -22 16.5 -38.5t38.5 -16.5q23 0 39 16.5t16 38.5q0 23 -16 39t-39 16q-22 0 -38.5 -16t-16.5 -39zM90 460v-460h80v460h-80z" />
    <glyph glyph-name="uni0218" unicode="&#x218;" horiz-adv-x="548" 
d="M112 226l-72 -43q33 -86 98.5 -139.5t151.5 -53.5q104 0 158.5 55.5t54.5 144.5q0 48 -17 82.5t-44 58t-58 39.5t-58 26q-42 16 -79 34t-60 41.5t-23 57.5q0 46 31.5 73t83.5 27q39 0 66 -16.5t46 -43t34 -55.5l69 46q-14 36 -43.5 70.5t-72.5 57t-100 22.5t-103 -21.5
t-73 -61t-27 -92.5q0 -45 17.5 -78t44.5 -56t57.5 -38.5t56.5 -24.5q40 -14 77.5 -33t62 -48t24.5 -74q0 -52 -30 -82.5t-90 -30.5q-65 0 -108 42t-75 114zM294 -70l-88 -259l58 -21l110 250z" />
    <glyph glyph-name="uni0071" unicode="q" 
d="M116 230q0 53 21.5 90t57.5 56t78 19q35 0 69 -19t56 -56t22 -90t-22 -90t-56 -56t-69 -19q-42 0 -78 19t-57.5 56t-21.5 90zM35 230q0 -74 31 -128t83 -83t114 -29q51 0 91.5 23t65.5 66v-299h80v680h-80v-79q-25 43 -65.5 66t-91.5 23q-62 0 -114 -29t-83 -82.5
t-31 -128.5z" />
    <glyph glyph-name="uni0147" unicode="&#x147;" horiz-adv-x="775" 
d="M400 880l-110 95l-50 -40l160 -140l160 140l-50 40zM610 700v-521l-530 556v-735h85v521l530 -556v735h-85z" />
    <glyph glyph-name="uni2020" unicode="&#x2020;" 
d="M245 700v-160h-155v-75h155v-615h80v615h155v75h-155v160h-80z" />
    <glyph glyph-name="uni0045" unicode="E" horiz-adv-x="550" 
d="M165 340h295v80h-295v200h315v80h-315h-38h-47v-700h47h38h315v80h-315v260z" />
    <glyph glyph-name="uni0056" unicode="V" horiz-adv-x="660" 
d="M330 158l-230 542h-95l325 -735l325 735h-95z" />
    <glyph glyph-name="uni014D" unicode="&#x14d;" horiz-adv-x="546" 
d="M35 230q0 -69 31.5 -123.5t85.5 -85.5t121 -31q68 0 121.5 31t85 85.5t31.5 123.5q0 70 -31.5 124t-85 85t-121.5 31q-67 0 -121 -31t-85.5 -85t-31.5 -124zM116 230q0 48 20.5 85.5t56 58.5t80.5 21t80.5 -21t56 -58.5t20.5 -85.5t-20.5 -85t-56 -58.5t-80.5 -21.5
t-80.5 21.5t-56 58.5t-20.5 85zM98 530h350v75h-350v-75z" />
    <glyph glyph-name="uni0145" unicode="&#x145;" horiz-adv-x="775" 
d="M399 -35l-88 -259l58 -21l110 250zM610 700v-521l-530 556v-735h85v521l530 -556v735h-85z" />
    <glyph glyph-name="uni00E2.alt" 
d="M35 230q0 -74 31 -128t83 -83t114 -29q54 0 95.5 25.5t66.5 72.5v-88h75v460h-75v-88q-25 47 -66.5 72.5t-95.5 25.5q-62 0 -114 -29t-83 -82.5t-31 -128.5zM116 230q0 53 21.5 90t57.5 56t78 19q35 0 69 -19t56 -56t22 -90t-22 -90t-56 -56t-69 -19q-42 0 -78 19
t-57.5 56t-21.5 90zM283 625l110 -95l50 40l-160 140l-160 -140l50 -40z" />
    <glyph glyph-name="uniFF15" unicode="&#xff15;" horiz-adv-x="580" 
d="M532 230q0 70 -27 123t-74.5 83t-107.5 30q-54 0 -104 -26l47 185h264v75h-330l-92 -373q36 25 63.5 38.5t55 19t60.5 5.5q45 0 80.5 -20t56 -56t20.5 -84q0 -72 -41 -116t-116 -44q-39 0 -73.5 16.5t-61 43t-42.5 56.5l-72 -49q23 -40 56.5 -73.5t81 -53.5t111.5 -20
q68 0 123.5 27t88.5 80.5t33 132.5z" />
    <glyph glyph-name="uni0028" unicode="(" horiz-adv-x="310" 
d="M205 780q-60 -112 -87.5 -237t-27.5 -253q0 -127 27.5 -252t87.5 -238h75q-52 113 -76 238t-24 252q0 128 24 253t76 237h-75z" />
    <glyph glyph-name="uni00B2" unicode="&#xb2;" horiz-adv-x="346" 
d="M25 282h296v48h-191l133 136q25 26 40.5 55t15.5 61q0 28 -13 57.5t-41 49.5t-74 20q-65 0 -103.5 -42t-38.5 -109h51q0 48 25.5 75.5t65.5 27.5q38 0 57 -23.5t19 -51.5q0 -25 -11.5 -47.5t-32.5 -44.5z" />
    <glyph glyph-name="uni00F3" unicode="&#xf3;" horiz-adv-x="546" 
d="M433 700l-75 40l-150 -160l45 -30zM116 230q0 48 20.5 85.5t56 58.5t80.5 21t80.5 -21t56 -58.5t20.5 -85.5t-20.5 -85t-56 -58.5t-80.5 -21.5t-80.5 21.5t-56 58.5t-20.5 85zM35 230q0 -69 31.5 -123.5t85.5 -85.5t121 -31q68 0 121.5 31t85 85.5t31.5 123.5
q0 70 -31.5 124t-85 85t-121.5 31q-67 0 -121 -31t-85.5 -85t-31.5 -124z" />
    <glyph glyph-name="uni002A" unicode="*" horiz-adv-x="592" 
d="M261 700l8 -158l-148 57l-21 -67l152 -41l-99 -123l57 -41l86 132l86 -132l57 41l-99 123l152 41l-21 67l-148 -57l8 158h-70z" />
    <glyph glyph-name="uni0139" unicode="&#x139;" horiz-adv-x="450" 
d="M80 700v-700h360v80h-275v620h-85zM390 920l-75 40l-150 -160l45 -30z" />
    <glyph glyph-name="uni0034" unicode="4" horiz-adv-x="583" 
d="M20 140h338v-140h85v140h110v75h-110v485h-35zM358 215h-198l198 296v-296z" />
    <glyph glyph-name="uni00F5" unicode="&#xf5;" horiz-adv-x="546" 
d="M108 567l53 -37q0 8 4 20t15 21.5t31 9.5q23 0 39.5 -11.5t35.5 -23.5t46 -12q38 0 66 22.5t40 50.5l-46 43q-30 -48 -56 -48q-20 0 -33 7t-24.5 16.5t-27 16.5t-39.5 7q-34 0 -65 -22.5t-39 -59.5zM116 230q0 48 20.5 85.5t56 58.5t80.5 21t80.5 -21t56 -58.5
t20.5 -85.5t-20.5 -85t-56 -58.5t-80.5 -21.5t-80.5 21.5t-56 58.5t-20.5 85zM35 230q0 -69 31.5 -123.5t85.5 -85.5t121 -31q68 0 121.5 31t85 85.5t31.5 123.5q0 70 -31.5 124t-85 85t-121.5 31q-67 0 -121 -31t-85.5 -85t-31.5 -124z" />
    <glyph glyph-name="uni0149" unicode="&#x149;" horiz-adv-x="635" 
d="M480 280v-280h80v290q0 89 -43.5 134.5t-114.5 45.5q-42 0 -77.5 -19t-59.5 -53v62h-80v-460h80v280q0 50 32.5 82.5t84.5 32.5q98 0 98 -115zM130 700l-60 -230h55l100 230h-95z" />
    <glyph glyph-name="uni0035" unicode="5" horiz-adv-x="564" 
d="M524 230q0 70 -27 123t-74.5 83t-107.5 30q-54 0 -104 -26l47 185h264v75h-330l-92 -373q36 25 63.5 38.5t55 19t60.5 5.5q45 0 80.5 -20t56 -56t20.5 -84q0 -72 -41 -116t-116 -44q-38 0 -73 16.5t-61.5 43t-42.5 56.5l-72 -49q23 -40 56.5 -73.5t81 -53.5t111.5 -20
q68 0 123.5 27t88.5 80.5t33 132.5z" />
    <glyph glyph-name="uni0072" unicode="r" horiz-adv-x="343" 
d="M294 372l44 66q-18 19 -39.5 25.5t-46.5 6.5q-26 0 -51.5 -17t-45.5 -46v53h-80v-460h80v280q0 50 16 82.5t61 32.5q20 0 33 -5.5t29 -17.5z" />
    <glyph glyph-name="uni013D" unicode="&#x13d;" horiz-adv-x="450" 
d="M80 700v-700h360v80h-275v620h-85zM328 710l-88 -259l58 -21l110 250z" />
    <glyph glyph-name="uni0105.alt" 
d="M116 230q0 53 21.5 90t57.5 56t78 19q35 0 69 -19t56 -56t22 -90t-22 -90t-56 -56t-69 -19q-42 0 -78 19t-57.5 56t-21.5 90zM505 -130q-10 -10 -20 -15t-30 -5q-22 0 -35 11.5t-13 38.5q0 28 27 56t66 44v460h-75v-88q-25 47 -66.5 72.5t-95.5 25.5q-62 0 -114 -29
t-83 -82.5t-31 -128.5q0 -74 31 -128t83 -83t114 -29q54 0 95.5 25.5t66.5 72.5v-82q-41 -25 -69.5 -57t-28.5 -69q0 -44 30 -72t93 -28q32 0 54.5 12.5t33.5 27.5z" />
    <glyph glyph-name="uni0148" unicode="&#x148;" horiz-adv-x="525" 
d="M370 280v-280h80v290q0 89 -43.5 134.5t-114.5 45.5q-42 0 -77.5 -19t-59.5 -53v62h-80v-460h80v280q0 50 32.5 82.5t84.5 32.5q98 0 98 -115zM262 615l-110 95l-50 -40l160 -140l160 140l-50 40z" />
    <glyph glyph-name="uni0068" unicode="h" horiz-adv-x="525" 
d="M370 280v-280h80v290q0 89 -43.5 134.5t-114.5 45.5q-45 0 -80.5 -22.5t-56.5 -60.5v393h-80v-780h80v280q0 50 32.5 82.5t84.5 32.5q98 0 98 -115z" />
    <glyph glyph-name="uni0107" unicode="&#x107;" horiz-adv-x="478" 
d="M398 680l-75 40l-150 -160l45 -30zM111 230q0 48 20.5 85.5t56 58.5t80.5 21q56 0 100 -25t60 -59v100q-24 28 -68.5 43.5t-91.5 15.5q-67 0 -121 -31t-85.5 -85t-31.5 -124q0 -69 31.5 -123.5t85.5 -85.5t121 -31q47 0 91.5 15.5t68.5 43.5v100q-16 -34 -60 -59
t-100 -25q-45 0 -80.5 21.5t-56 58.5t-20.5 85z" />
    <glyph glyph-name="uni014C" unicode="&#x14c;" horiz-adv-x="790" 
d="M130 350q0 79 34.5 141t94.5 98t136 36q77 0 136.5 -36t94 -98t34.5 -141t-34.5 -141t-94 -98t-136.5 -36q-76 0 -136 36t-94.5 98t-34.5 141zM40 350q0 -76 26.5 -142t74.5 -114.5t113 -76t141 -27.5q77 0 141.5 27.5t112.5 76t74.5 114.5t26.5 142q0 77 -26.5 142.5
t-74.5 114t-112.5 76t-141.5 27.5q-76 0 -141 -27.5t-113 -76t-74.5 -114t-26.5 -142.5zM220 770h350v75h-350v-75z" />
    <glyph glyph-name="uni2085" unicode="&#x2085;" horiz-adv-x="356" 
d="M326 136q0 62 -35.5 102t-89.5 40q-33 0 -62 -16l27 111h159v45h-198l-55 -224q32 23 54.5 30.5t52.5 7.5q41 0 67.5 -26t26.5 -70q0 -43 -24.5 -69.5t-69.5 -26.5q-34 0 -63 21.5t-43 48.5l-43 -30q21 -36 56 -62t93 -26q61 0 104 36.5t43 107.5z" />
    <glyph glyph-name="uni004F" unicode="O" horiz-adv-x="790" 
d="M40 350q0 -76 26.5 -142t74.5 -114.5t113 -76t141 -27.5q77 0 141.5 27.5t112.5 76t74.5 114.5t26.5 142q0 77 -26.5 142.5t-74.5 114t-112.5 76t-141.5 27.5q-76 0 -141 -27.5t-113 -76t-74.5 -114t-26.5 -142.5zM130 350q0 79 34.5 141t94.5 98t136 36q77 0 136.5 -36
t94 -98t34.5 -141t-34.5 -141t-94 -98t-136.5 -36q-76 0 -136 36t-94.5 98t-34.5 141z" />
    <glyph glyph-name="uni2077" unicode="&#x2077;" horiz-adv-x="354" 
d="M30 652h218l-178 -372h53l201 420h-294v-48z" />
    <glyph glyph-name="uni00D2" unicode="&#xd2;" horiz-adv-x="790" 
d="M275 920l180 -150l45 30l-150 160zM40 350q0 -76 26.5 -142t74.5 -114.5t113 -76t141 -27.5q77 0 141.5 27.5t112.5 76t74.5 114.5t26.5 142q0 77 -26.5 142.5t-74.5 114t-112.5 76t-141.5 27.5q-76 0 -141 -27.5t-113 -76t-74.5 -114t-26.5 -142.5zM130 350
q0 79 34.5 141t94.5 98t136 36q77 0 136.5 -36t94 -98t34.5 -141t-34.5 -141t-94 -98t-136.5 -36q-76 0 -136 36t-94.5 98t-34.5 141z" />
    <glyph glyph-name="uni2089" unicode="&#x2089;" horiz-adv-x="346" 
d="M262 284q0 -43 -26.5 -71t-67.5 -28q-40 0 -67 28t-27 71q0 44 27 71t67 27q41 0 67.5 -27t26.5 -71zM143 2l141 195q12 17 19.5 39.5t7.5 47.5q0 65 -41 104.5t-102 39.5t-102 -39.5t-41 -104.5q0 -39 17 -69.5t45 -48.5t62 -18q14 0 26 2t22 8l-119 -156h65z" />
    <glyph glyph-name="uni2212" unicode="&#x2212;" horiz-adv-x="590" 
d="M70 200h450v75h-450v-75z" />
    <glyph glyph-name="uni201D" unicode="&#x201d;" horiz-adv-x="475" 
d="M110 700l-60 -230h55l100 230h-95zM310 700l-60 -230h55l100 230h-95z" />
    <glyph glyph-name="uni02C6" unicode="&#x2c6;" horiz-adv-x="480" 
d="M240 645l110 -95l50 40l-160 140l-160 -140l50 -40z" />
    <glyph glyph-name="uni00C4" unicode="&#xc4;" horiz-adv-x="660" 
d="M175 850q0 -22 16.5 -38.5t38.5 -16.5q23 0 39 16.5t16 38.5q0 23 -16 39t-39 16q-22 0 -38.5 -16t-16.5 -39zM375 850q0 -22 16.5 -38.5t38.5 -16.5q23 0 39 16.5t16 38.5q0 23 -16 39t-39 16q-22 0 -38.5 -16t-16.5 -39zM189 210h282l89 -210h95l-325 735l-325 -735h95
zM223 290l107 252l107 -252h-214z" />
    <glyph glyph-name="uni00DD" unicode="&#xdd;" horiz-adv-x="561" 
d="M461 700l-181 -324l-180 324h-95l233 -399v-301h85v302l233 398h-95zM410 920l-74 40l-150 -160l44 -30z" />
    <glyph glyph-name="uni0069" unicode="i" horiz-adv-x="260" 
d="M90 460v-460h80v460h-80zM75 650q0 -22 16.5 -38.5t38.5 -16.5q23 0 39 16.5t16 38.5q0 23 -16 39t-39 16q-22 0 -38.5 -16t-16.5 -39z" />
    <glyph glyph-name="uni00E1" unicode="&#xe1;" horiz-adv-x="485" 
d="M408 680l-75 40l-150 -160l45 -30zM111 352q17 12 52.5 30t84.5 18q38 0 67.5 -17.5t29.5 -52.5v-77q-19 13 -48.5 23t-70.5 10q-55 0 -99.5 -18t-70.5 -53.5t-26 -89.5q0 -63 43.5 -99t114.5 -36q52 0 94 19.5t63 56.5v-66h80v330q0 67 -49 103.5t-128 36.5
q-62 0 -106 -19t-70 -38zM111 135q0 42 29 66t90 24q33 0 61 -6.5t54 -20.5v-18q0 -64 -38.5 -91.5t-98.5 -27.5q-97 0 -97 74z" />
    <glyph glyph-name="uni012E" unicode="&#x12e;" horiz-adv-x="245" 
d="M170 -130q-10 -10 -20 -15t-30 -5q-22 0 -35 11.5t-13 38.5q0 28 27 56t66 44v700h-85v-700h1q-37 -25 -63 -55t-26 -65q0 -44 30 -72t93 -28q32 0 54.5 12.5t33.5 27.5z" />
    <glyph glyph-name="uni0049" unicode="I" horiz-adv-x="245" 
d="M80 700v-700h85v700h-85z" />
    <glyph glyph-name="uni2010" unicode="&#x2010;" horiz-adv-x="210" 
d="M5 200h200v75h-200v-75z" />
    <glyph glyph-name="uni015B" unicode="&#x15b;" horiz-adv-x="403" 
d="M91 161l-66 -38q7 -37 33.5 -67.5t65.5 -48t81 -17.5q74 0 121 33t47 107q0 34 -18 59.5t-47 44.5t-62 32q-25 11 -51 22t-43.5 24.5t-17.5 31.5q0 27 20 38.5t50 11.5q28 0 56.5 -16t44.5 -39l64 41q-9 26 -34.5 46t-60 32t-71.5 12t-71 -14.5t-56 -41.5t-22 -65
t20 -63.5t50.5 -41.5t61.5 -29q27 -10 50.5 -22t38.5 -28.5t15 -41.5q0 -30 -21 -44t-59 -14q-43 0 -76.5 27t-42.5 69zM383 680l-75 40l-150 -160l45 -30z" />
    <glyph glyph-name="uni0044" unicode="D" horiz-adv-x="680" 
d="M127 0h38h125q102 0 181 44t124 122.5t45 183.5t-45 183.5t-124 122.5t-181 44h-125h-38h-47v-700h47zM165 85v530h125q79 0 138.5 -32.5t93 -91.5t33.5 -141q0 -81 -33.5 -140.5t-93 -92t-138.5 -32.5h-125z" />
    <glyph glyph-name="uni00DE" unicode="&#xde;" horiz-adv-x="550" 
d="M80 700v-700h85v140h105q68 0 121.5 25.5t85 73t31.5 111.5q0 65 -31.5 112t-85 72.5t-121.5 25.5h-105v140h-85zM165 220v260h105q68 0 110.5 -32.5t42.5 -97.5q0 -64 -42.5 -97t-110.5 -33h-105z" />
    <glyph glyph-name="uni005C" unicode="\" horiz-adv-x="515" 
d="M15 700l400 -700h85l-400 700h-85z" />
    <glyph glyph-name="uni0110" unicode="&#x110;" horiz-adv-x="680" 
d="M5 310h75v-310h47h38h125q102 0 181 44t124 122.5t45 183.5t-45 183.5t-124 122.5t-181 44h-125h-38h-47v-315h-75v-75zM165 85v225h140v75h-140v230h125q79 0 138.5 -32.5t93 -91.5t33.5 -141q0 -81 -33.5 -140.5t-93 -92t-138.5 -32.5h-125z" />
    <glyph glyph-name="uni0164" unicode="&#x164;" horiz-adv-x="465" 
d="M10 620h180v-620h85v620h180v80h-445v-80zM232 855l-110 95l-50 -40l160 -140l160 140l-50 40z" />
    <glyph glyph-name="uni00C9" unicode="&#xc9;" horiz-adv-x="550" 
d="M410 920l-75 40l-150 -160l45 -30zM165 340h295v80h-295v200h315v80h-315h-38h-47v-700h47h38h315v80h-315v260z" />
    <glyph glyph-name="uni0134" unicode="&#x134;" horiz-adv-x="240" 
d="M120 865l110 -95l50 40l-160 140l-160 -140l50 -40zM-67 -104l-44 -66q11 -15 44.5 -32.5t73.5 -17.5q71 0 112 39t41 121v760h-80v-750q0 -49 -22.5 -69.5t-45.5 -20.5q-57 0 -79 36z" />
    <glyph glyph-name="uni00FA" unicode="&#xfa;" horiz-adv-x="525" 
d="M382 700l-74 40l-150 -160l44 -30zM155 180v280h-80v-290q0 -89 43.5 -134.5t114.5 -45.5q42 0 77.5 19t59.5 53v-62h80v460h-80v-280q0 -49 -32 -82t-85 -33q-98 0 -98 115z" />
    <glyph glyph-name="uniFF18" unicode="&#xff18;" horiz-adv-x="580" 
d="M97 531q0 -57 26.5 -97.5t72.5 -60.5q-54 -21 -89 -67.5t-35 -115.5q0 -54 28.5 -99.5t78 -73t111.5 -27.5q63 0 112 27.5t77.5 73t28.5 99.5q0 69 -35 115.5t-89 67.5q47 20 73 60.5t26 97.5q0 50 -25.5 90.5t-69 64.5t-98.5 24t-98.5 -24t-69 -64.5t-25.5 -90.5z
M178 521q0 50 31.5 82t80.5 32t80.5 -32t31.5 -82q0 -49 -33.5 -80t-78.5 -31t-78.5 31t-33.5 80zM153 200q0 38 19.5 68.5t51 48.5t66.5 18t66.5 -18t51 -48.5t19.5 -68.5q0 -43 -19.5 -73t-51 -46t-66.5 -16t-66.5 16t-51 46t-19.5 73z" />
    <glyph glyph-name="uni2030" unicode="&#x2030;" horiz-adv-x="1131" 
d="M780 150q0 -44 19.5 -80.5t55.5 -58t83 -21.5q48 0 83.5 21.5t55 58t19.5 80.5q0 45 -19.5 81t-55 57.5t-83.5 21.5q-47 0 -83 -21.5t-55.5 -57.5t-19.5 -81zM851 150q0 38 23 66.5t64 28.5t64 -28.5t23 -66.5t-23 -66.5t-64 -28.5t-64 28.5t-23 66.5zM35 550
q0 -44 19.5 -80.5t55.5 -58t83 -21.5q48 0 83.5 21.5t55 58t19.5 80.5q0 45 -19.5 81t-55 57.5t-83.5 21.5q-47 0 -83 -21.5t-55.5 -57.5t-19.5 -81zM106 550q0 38 23 66.5t64 28.5t64 -28.5t23 -66.5t-23 -66.5t-64 -28.5t-64 28.5t-23 66.5zM400 150q0 -44 19.5 -80.5
t55.5 -58t83 -21.5q48 0 83.5 21.5t55 58t19.5 80.5q0 45 -19.5 81t-55 57.5t-83.5 21.5q-47 0 -83 -21.5t-55.5 -57.5t-19.5 -81zM471 150q0 38 23 66.5t64 28.5t64 -28.5t23 -66.5t-23 -66.5t-64 -28.5t-64 28.5t-23 66.5zM563 700l-450 -700h75l450 700h-75z" />
    <glyph glyph-name="uni0031" unicode="1" horiz-adv-x="450" 
d="M80 562l155 46v-608h85v710l-240 -60v-88z" />
    <glyph glyph-name="uni0039" unicode="9" horiz-adv-x="576" 
d="M246 0l236 325q20 28 32 65t12 80q0 72 -31.5 126t-85 84t-121.5 30q-67 0 -121 -30t-85.5 -84t-31.5 -126q0 -64 28 -115.5t75 -81.5t104 -30q23 0 43 3t36 13l-197 -259h107zM445 470q0 -48 -20.5 -85t-56 -58.5t-80.5 -21.5t-80.5 21.5t-56 58.5t-20.5 85t20.5 84.5
t56 57.5t80.5 21t80.5 -21t56 -57.5t20.5 -84.5z" />
    <glyph glyph-name="uni012A" unicode="&#x12a;" horiz-adv-x="245" 
d="M-52 770h350v75h-350v-75zM80 700v-700h85v700h-85z" />
    <glyph glyph-name="uni2122" unicode="&#x2122;" horiz-adv-x="665" 
d="M336 585l114 -203l114 203l26 -235h42l-42 367l-140 -253l-140 253l-42 -367h42zM32 660h90v-310h43v310h90v40h-223v-40z" />
    <glyph glyph-name="uniFF16" unicode="&#xff16;" horiz-adv-x="580" 
d="M133 230q0 48 20.5 85.5t56 58.5t80.5 21t80.5 -21t56 -58.5t20.5 -85.5t-20.5 -84.5t-56 -57.5t-80.5 -21t-80.5 21t-56 57.5t-20.5 84.5zM332 700l-236 -325q-20 -28 -32 -65t-12 -80q0 -72 31.5 -126t85.5 -84t121 -30q68 0 121.5 30t85 84t31.5 126q0 65 -28 116
t-75 81t-104 30q-23 0 -42.5 -3t-36.5 -13l197 259h-107z" />
    <glyph glyph-name="uni00B5" unicode="&#xb5;" horiz-adv-x="525" 
d="M155 460h-80v-290v-490h80v327q17 -9 36.5 -13t41.5 -4q42 0 77.5 19t59.5 53v-62h80v460h-80v-280q0 -49 -32 -82t-85 -33q-98 0 -98 115v280z" />
    <glyph glyph-name="uni0137" unicode="&#x137;" horiz-adv-x="440" 
d="M259 -60l-88 -259l58 -21l110 250zM320 460l-170 -162v482h-80v-780h80v233l190 -233h100l-220 270l200 190h-100z" />
    <glyph glyph-name="uni012D" unicode="&#x12d;" horiz-adv-x="260" 
d="M-28 670q0 -34 17.5 -66.5t53 -53t87.5 -20.5q53 0 88 20.5t52.5 53t17.5 66.5h-71q0 -13 -7 -30.5t-26 -31t-54 -13.5t-54 13.5t-26 31t-7 30.5h-71zM90 460v-460h80v460h-80z" />
    <glyph glyph-name="uni0027" unicode="'" horiz-adv-x="285" 
d="M130 700l-50 -300h55l90 300h-95z" />
    <glyph glyph-name="uni0033" unicode="3" horiz-adv-x="546" 
d="M283 -10q63 0 112 24t77.5 68t28.5 103q0 74 -38.5 117.5t-99.5 62.5q55 23 86.5 65t31.5 94q0 50 -23.5 92t-67 68t-103.5 26q-57 0 -101.5 -23.5t-70 -64.5t-25.5 -96h81q0 46 34 76.5t83 30.5q53 0 79.5 -31t26.5 -81q0 -49 -36.5 -85t-104.5 -36v-20v-35v-20
q68 0 114.5 -32.5t46.5 -97.5q0 -57 -35.5 -91t-95.5 -34t-98.5 33t-38.5 82h-86q0 -54 27.5 -98.5t78 -70.5t117.5 -26z" />
    <glyph glyph-name="uni0022" unicode="&#x22;" horiz-adv-x="465" 
d="M310 700l-50 -300h55l90 300h-95zM130 700l-50 -300h55l90 300h-95z" />
    <glyph glyph-name="uni00AA" unicode="&#xaa;" horiz-adv-x="238" 
d="M61 646q8 6 26 15t43 9q19 0 33.5 -9t14.5 -26v-39q-10 6 -25 11.5t-35 5.5q-37 0 -67.5 -22.5t-30.5 -58.5q0 -37 24.5 -57t55.5 -20q56 0 78 38v-33h40v175q0 33 -24.5 51.5t-63.5 18.5q-31 0 -53 -9.5t-35 -18.5zM61 532q0 21 16 36t43 15q32 0 58 -14v-19
q0 -32 -21 -45.5t-47 -13.5q-28 0 -38.5 12.5t-10.5 28.5z" />
    <glyph glyph-name="uni00FE" unicode="&#xfe;" 
d="M454 230q0 -53 -21.5 -90t-57 -56t-78.5 -19q-35 0 -69 19t-56 56t-22 90t22 90t56 56t69 19q43 0 78.5 -19t57 -56t21.5 -90zM535 230q0 75 -31 128.5t-82.5 82.5t-114.5 29q-51 0 -91 -23t-66 -66v399h-80v-1000h80v299q26 -43 66 -66t91 -23q63 0 114.5 29t82.5 83
t31 128z" />
    <glyph glyph-name="uni014F" unicode="&#x14f;" horiz-adv-x="546" 
d="M35 230q0 -69 31.5 -123.5t85.5 -85.5t121 -31q68 0 121.5 31t85 85.5t31.5 123.5q0 70 -31.5 124t-85 85t-121.5 31q-67 0 -121 -31t-85.5 -85t-31.5 -124zM116 230q0 48 20.5 85.5t56 58.5t80.5 21t80.5 -21t56 -58.5t20.5 -85.5t-20.5 -85t-56 -58.5t-80.5 -21.5
t-80.5 21.5t-56 58.5t-20.5 85zM115 670q0 -34 17.5 -66.5t53 -53t87.5 -20.5q53 0 88 20.5t52.5 53t17.5 66.5h-71q0 -13 -7 -30.5t-26 -31t-54 -13.5t-54 13.5t-26 31t-7 30.5h-71z" />
    <glyph glyph-name="uni2078" unicode="&#x2078;" horiz-adv-x="322" 
d="M45 599q0 -34 16 -58.5t44 -36.5q-32 -13 -53.5 -41t-21.5 -69q0 -32 17 -59.5t47 -44t67 -16.5q38 0 67.5 16.5t46.5 44t17 59.5q0 41 -21.5 69t-53.5 41q28 12 44 36.5t16 58.5q0 44 -33 75.5t-83 31.5q-49 0 -82.5 -31.5t-33.5 -75.5zM94 593q0 30 19 49t48 19t48 -19
t19 -49t-20 -48.5t-47 -18.5t-47 18.5t-20 48.5zM79 400q0 35 25.5 58t56.5 23q32 0 57 -23t25 -58q0 -39 -25 -60t-57 -21q-31 0 -56.5 21t-25.5 60z" />
    <glyph glyph-name="uni0061.alt" 
d="M35 230q0 -74 31 -128t83 -83t114 -29q54 0 95.5 25.5t66.5 72.5v-88h75v460h-75v-88q-25 47 -66.5 72.5t-95.5 25.5q-62 0 -114 -29t-83 -82.5t-31 -128.5zM116 230q0 53 21.5 90t57.5 56t78 19q35 0 69 -19t56 -56t22 -90t-22 -90t-56 -56t-69 -19q-42 0 -78 19
t-57.5 56t-21.5 90z" />
    <glyph glyph-name="uni00CC" unicode="&#xcc;" horiz-adv-x="245" 
d="M-8 920l180 -150l46 30l-150 160zM80 700v-700h85v700h-85z" />
    <glyph glyph-name="uni0041" unicode="A" horiz-adv-x="660" 
d="M189 210h282l89 -210h95l-325 735l-325 -735h95zM223 290l107 252l107 -252h-214z" />
    <glyph glyph-name="uni0119" unicode="&#x119;" horiz-adv-x="515" 
d="M299 -131q-10 -10 -20 -15t-30 -5q-22 0 -35 11.5t-13 38.5q0 25 21.5 50t53.5 42q77 5 120.5 36t75.5 80l-65 41q-23 -37 -58.5 -60t-85.5 -23q-63 0 -102 37.5t-44 107.5h362q1 6 1 12v12q0 73 -27 125.5t-76 81.5t-114 29q-59 0 -106.5 -24t-77.5 -67t-40 -100
q-2 -12 -3 -24t-1 -25q0 -60 21.5 -109t59.5 -81.5t88 -44.5q-36 -24 -59.5 -53t-23.5 -63q0 -44 30 -72t93 -28q32 0 54.5 12.5t33.5 27.5zM119 278q6 56 47.5 89t96.5 33q60 0 92 -34t38 -88h-274z" />
    <glyph glyph-name="uni0120" unicode="&#x120;" horiz-adv-x="775" 
d="M340 825q0 -22 16.5 -38.5t38.5 -16.5q23 0 39 16.5t16 38.5q0 23 -16 39t-39 16q-22 0 -38.5 -16t-16.5 -39zM405 275h233q-11 -54 -42 -99.5t-81 -73t-120 -27.5q-74 0 -134 35t-95.5 97t-35.5 143q0 82 35.5 143.5t95.5 96.5t134 35q80 0 139 -31.5t92 -87.5l60 55
q-45 73 -119.5 111t-171.5 38q-76 0 -141 -26.5t-113 -75t-74.5 -114.5t-26.5 -144t26.5 -144t74.5 -114.5t113 -75t141 -26.5q80 0 142.5 29.5t105.5 80.5t65 116.5t22 138.5h-325v-80z" />
    <glyph glyph-name="uni010D" unicode="&#x10d;" horiz-adv-x="478" 
d="M268 615l-110 95l-50 -40l160 -140l160 140l-50 40zM111 230q0 48 20.5 85.5t56 58.5t80.5 21q56 0 100 -25t60 -59v100q-24 28 -68.5 43.5t-91.5 15.5q-67 0 -121 -31t-85.5 -85t-31.5 -124q0 -69 31.5 -123.5t85.5 -85.5t121 -31q47 0 91.5 15.5t68.5 43.5v100
q-16 -34 -60 -59t-100 -25q-45 0 -80.5 21.5t-56 58.5t-20.5 85z" />
    <glyph glyph-name="uni0075" unicode="u" horiz-adv-x="525" 
d="M155 180v280h-80v-290q0 -89 43.5 -134.5t114.5 -45.5q45 0 80.5 22.5t56.5 60.5v-73h80v460h-80v-280q0 -49 -32 -82t-85 -33q-98 0 -98 115z" />
    <glyph glyph-name="uni0138" unicode="&#x138;" horiz-adv-x="440" 
d="M320 460l-170 -162v162h-80v-460h80v233l190 -233h100l-220 270l200 190h-100z" />
    <glyph glyph-name="uni0125" unicode="&#x125;" horiz-adv-x="525" 
d="M122 935l110 -95l50 40l-160 140l-160 -140l50 -40zM370 280v-280h80v290q0 89 -43.5 134.5t-114.5 45.5q-42 0 -77.5 -19t-59.5 -53v382h-80v-780h80v280q0 50 32.5 82.5t84.5 32.5q98 0 98 -115z" />
    <glyph glyph-name="uni00C8" unicode="&#xc8;" horiz-adv-x="550" 
d="M150 920l180 -150l45 30l-150 160zM165 340h295v80h-295v200h315v80h-315h-38h-47v-700h47h38h315v80h-315v260z" />
    <glyph glyph-name="uni0135" unicode="&#x135;" horiz-adv-x="250" 
d="M120 625l110 -95l50 40l-160 140l-160 -140l50 -40zM-17 -114l-44 -66q11 -15 33.5 -27.5t54.5 -12.5q63 0 98 39t35 121v520h-80v-510q0 -49 -12.5 -69.5t-35.5 -20.5q-12 0 -25 4.5t-24 21.5z" />
    <glyph glyph-name="uni004D" unicode="M" horiz-adv-x="810" 
d="M177 473l228 -408l228 408l52 -473h85l-85 735l-280 -507l-280 507l-85 -735h85z" />
    <glyph glyph-name="uni0212" unicode="&#x212;" horiz-adv-x="560" 
d="M165 355v270h105q68 0 110.5 -35t42.5 -100q0 -64 -42.5 -99.5t-110.5 -35.5h-105zM165 280h85l195 -280h105l-209 288q74 18 120.5 70.5t46.5 131.5q0 65 -31.5 112t-85 72.5t-121.5 25.5h-105h-38h-47v-700h85v280zM117 770h71q0 13 7 30.5t26 31t54 13.5t54 -13.5
t26 -31t7 -30.5h71q0 35 -17.5 67t-52.5 52.5t-88 20.5q-52 0 -87.5 -20.5t-53 -52.5t-17.5 -67z" />
    <glyph glyph-name="uni0054" unicode="T" horiz-adv-x="465" 
d="M10 620h180v-620h85v620h180v80h-445v-80z" />
    <glyph glyph-name="uni0156" unicode="&#x156;" horiz-adv-x="560" 
d="M165 355v270h105q68 0 110.5 -35t42.5 -100q0 -64 -42.5 -99.5t-110.5 -35.5h-105zM165 280h85l195 -280h105l-209 288q74 18 120.5 70.5t46.5 131.5q0 65 -31.5 112t-85 72.5t-121.5 25.5h-105h-38h-47v-700h85v280zM319 -60l-88 -259l58 -21l110 250z" />
    <glyph glyph-name="uni004C" unicode="L" horiz-adv-x="450" 
d="M80 700v-700h360v80h-275v620h-85z" />
    <glyph glyph-name="uni0106" unicode="&#x106;" horiz-adv-x="685" 
d="M520 920l-75 40l-150 -160l45 -30zM130 350q0 82 36.5 143.5t95.5 96.5t128 35q74 0 131 -28.5t94 -75.5v112q-44 39 -96 58t-129 19q-73 0 -136.5 -26.5t-111.5 -75t-75 -114.5t-27 -144t27 -144t75 -114.5t111.5 -75t136.5 -26.5q77 0 129 19t96 58v112
q-37 -46 -94 -75t-131 -29q-69 0 -128 35t-95.5 97t-36.5 143z" />
    <glyph glyph-name="uni00E6" unicode="&#xe6;" horiz-adv-x="825" 
d="M111 352q17 12 52.5 30t84.5 18q38 0 67.5 -22.5t29.5 -57.5v-67q-19 13 -48.5 23t-70.5 10q-55 0 -99.5 -18t-70.5 -53.5t-26 -89.5q0 -63 46 -99t132 -36q62 0 113 27.5t65 78.5q26 -49 72 -77.5t105 -28.5q60 0 100 14.5t68 41t51 61.5l-65 41q-23 -37 -58.5 -60
t-85.5 -23q-63 0 -102 37.5t-44 107.5h362q1 6 1 12v12q0 73 -29 125.5t-76 81.5t-102 29q-62 0 -108.5 -26.5t-73.5 -73.5q-10 48 -48.5 74t-104.5 26q-62 0 -106 -19t-70 -38zM111 135q0 42 29 66t90 24q33 0 61 -6.5t54 -20.5v-18q0 -64 -38.5 -91.5t-98.5 -27.5
q-97 0 -97 74zM703 278h-274q6 56 47.5 89t96.5 33q60 0 92 -34t38 -88z" />
    <glyph glyph-name="uni02C7" unicode="&#x2c7;" horiz-adv-x="480" 
d="M240 655l-110 95l-50 -40l160 -140l160 140l-50 40z" />
    <glyph glyph-name="uni0070" unicode="p" 
d="M454 230q0 -53 -21.5 -90t-57 -56t-78.5 -19q-35 0 -69 19t-56 56t-22 90t22 90t56 56t69 19q43 0 78.5 -19t57 -56t21.5 -90zM535 230q0 75 -31 128.5t-82.5 82.5t-114.5 29q-51 0 -91 -23t-66 -66v79h-80v-680h80v299q26 -43 66 -66t91 -23q63 0 114.5 29t82.5 83
t31 128z" />
    <glyph glyph-name="uni2031" unicode="&#x2031;" horiz-adv-x="1511" 
d="M1160 150q0 -44 19.5 -80.5t55.5 -58t83 -21.5q48 0 83.5 21.5t55 58t19.5 80.5q0 45 -19.5 81t-55 57.5t-83.5 21.5q-47 0 -83 -21.5t-55.5 -57.5t-19.5 -81zM1231 150q0 38 23 66.5t64 28.5t64 -28.5t23 -66.5t-23 -66.5t-64 -28.5t-64 28.5t-23 66.5zM780 150
q0 -44 19.5 -80.5t55.5 -58t83 -21.5q48 0 83.5 21.5t55 58t19.5 80.5q0 45 -19.5 81t-55 57.5t-83.5 21.5q-47 0 -83 -21.5t-55.5 -57.5t-19.5 -81zM851 150q0 38 23 66.5t64 28.5t64 -28.5t23 -66.5t-23 -66.5t-64 -28.5t-64 28.5t-23 66.5zM35 550q0 -44 19.5 -80.5
t55.5 -58t83 -21.5q48 0 83.5 21.5t55 58t19.5 80.5q0 45 -19.5 81t-55 57.5t-83.5 21.5q-47 0 -83 -21.5t-55.5 -57.5t-19.5 -81zM106 550q0 38 23 66.5t64 28.5t64 -28.5t23 -66.5t-23 -66.5t-64 -28.5t-64 28.5t-23 66.5zM400 150q0 -44 19.5 -80.5t55.5 -58t83 -21.5
q48 0 83.5 21.5t55 58t19.5 80.5q0 45 -19.5 81t-55 57.5t-83.5 21.5q-47 0 -83 -21.5t-55.5 -57.5t-19.5 -81zM471 150q0 38 23 66.5t64 28.5t64 -28.5t23 -66.5t-23 -66.5t-64 -28.5t-64 28.5t-23 66.5zM563 700l-450 -700h75l450 700h-75z" />
    <glyph glyph-name="uni0066" unicode="f" horiz-adv-x="286" 
d="M262 684l44 66q-11 15 -33.5 27.5t-54.5 12.5q-63 0 -98 -39t-35 -121v-170h-45v-75h45v-385h80v385h105v75h-105v160q0 50 13 70t35 20q12 0 25.5 -4.5t23.5 -21.5z" />
    <glyph glyph-name="uni003E" unicode="&#x3e;" horiz-adv-x="640" 
d="M443 253l-378 -158v-80l510 220v45l-510 220v-80z" />
    <glyph glyph-name="uni0104" unicode="&#x104;" horiz-adv-x="660" 
d="M660 -130q-10 -10 -20 -15t-30 -5q-22 0 -35 11.5t-13 38.5q0 28 27 56t66 44l-325 735l-325 -735h95l89 210h282l89 -210h11q-37 -25 -63 -55t-26 -65q0 -44 30 -72t93 -28q32 0 54.5 12.5t33.5 27.5zM223 290l107 252l107 -252h-214z" />
    <glyph glyph-name="uni2082" unicode="&#x2082;" horiz-adv-x="346" 
d="M25 2h296v48h-191l133 136q25 26 40.5 55t15.5 61q0 28 -13 57.5t-41 49.5t-74 20q-65 0 -103.5 -42t-38.5 -109h51q0 48 25.5 75.5t65.5 27.5q38 0 57 -23.5t19 -51.5q0 -25 -11.5 -47.5t-32.5 -44.5z" />
    <glyph glyph-name="uni201C" unicode="&#x201c;" horiz-adv-x="475" 
d="M165 470l60 230h-55l-100 -230h95zM365 470l60 230h-55l-100 -230h95z" />
    <glyph glyph-name="uni0046" unicode="F" horiz-adv-x="500" 
d="M165 340h265v80h-265v200h275v80h-275h-38h-47v-700h85v340z" />
    <glyph glyph-name="racute" unicode="&#x155;" horiz-adv-x="343" 
d="M294 372l44 66q-18 19 -39.5 25.5t-46.5 6.5q-26 0 -51.5 -17t-45.5 -46v53h-80v-460h80v280q0 50 16 82.5t61 32.5q20 0 33 -5.5t29 -17.5zM336 680l-74 40l-150 -160l44 -30z" />
    <glyph glyph-name="twothirds" unicode="&#x2154;" horiz-adv-x="882" 
d="M695 700l-520 -700h65l520 700h-65zM30 282h296v48h-191l133 136q25 26 40.5 55t15.5 61q0 28 -13 57.5t-41 49.5t-74 20q-65 0 -103.5 -42t-38.5 -109h51q0 48 25.5 75.5t65.5 27.5q38 0 57 -23.5t19 -51.5q0 -25 -11.5 -47.5t-32.5 -44.5zM724 -6q56 0 93.5 32t37.5 85
q0 44 -23 70.5t-60 37.5q33 14 52 39t19 56q0 44 -31 78t-85 34q-52 0 -85.5 -30.5t-33.5 -79.5h49q0 28 20.5 46t49.5 18q32 0 48 -18.5t16 -48.5t-22 -51.5t-63 -21.5v-12v-21v-12q41 0 69 -19.5t28 -58.5q0 -34 -21.5 -54.5t-57.5 -20.5t-59 19.5t-23 49.5h-52
q0 -49 36.5 -83t97.5 -34z" />
    <glyph glyph-name="a" unicode="a" horiz-adv-x="485" 
d="M111 352q17 12 52.5 30t84.5 18q38 0 67.5 -17.5t29.5 -52.5v-77q-19 13 -48.5 23t-70.5 10q-91 0 -143.5 -40.5t-52.5 -113.5q0 -47 21.5 -78.5t57.5 -47.5t79 -16q52 0 94 19.5t63 56.5v-66h80v330q0 67 -49 103.5t-128 36.5q-62 0 -106 -19t-70 -38zM111 135
q0 42 29 66t90 24q33 0 61 -6.5t54 -20.5v-18q0 -64 -38.5 -91.5t-98.5 -27.5q-40 0 -68.5 18.5t-28.5 55.5z" />
    <glyph glyph-name="figuredash" unicode="&#x2012;" horiz-adv-x="590" 
d="M70 200h450v75h-450v-75z" />
    <glyph glyph-name="s" unicode="s" horiz-adv-x="403" 
d="M88 162l-63 -39q26 -56 76 -94.5t114 -38.5q67 0 112.5 33t45.5 107q0 39 -18 65t-47 44t-62 31q-25 11 -51.5 20.5t-44.5 23t-18 35.5q0 27 21 37.5t51 10.5q28 0 56.5 -17.5t44.5 -40.5l64 41q-21 38 -66 64t-100 26q-37 0 -71 -13t-56 -40.5t-22 -70.5t20 -68
t50.5 -39.5t61.5 -27.5q27 -10 50.5 -22t38.5 -28t15 -40q0 -29 -21.5 -42.5t-53.5 -13.5q-33 0 -68 27.5t-59 69.5z" />
    <glyph glyph-name="ograve" unicode="&#xf2;" horiz-adv-x="546" 
d="M113 700l180 -150l45 30l-150 160zM116 230q0 48 20.5 85.5t56 58.5t80.5 21t80.5 -21t56 -58.5t20.5 -85.5t-20.5 -85t-56 -58.5t-80.5 -21.5t-80.5 21.5t-56 58.5t-20.5 85zM35 230q0 -69 31.5 -123.5t85.5 -85.5t121 -31q68 0 121.5 31t85 85.5t31.5 123.5
q0 70 -31.5 124t-85 85t-121.5 31q-67 0 -121 -31t-85.5 -85t-31.5 -124z" />
    <glyph glyph-name="Obreve" unicode="&#x14e;" horiz-adv-x="790" 
d="M130 350q0 79 34.5 141t94.5 98t136 36q77 0 136.5 -36t94 -98t34.5 -141t-34.5 -141t-94 -98t-136.5 -36q-76 0 -136 36t-94.5 98t-34.5 141zM40 350q0 -76 26.5 -142t74.5 -114.5t113 -76t141 -27.5q77 0 141.5 27.5t112.5 76t74.5 114.5t26.5 142q0 77 -26.5 142.5
t-74.5 114t-112.5 76t-141.5 27.5q-76 0 -141 -27.5t-113 -76t-74.5 -114t-26.5 -142.5zM237 910q0 -34 17.5 -66.5t53 -53t87.5 -20.5q53 0 88 20.5t52.5 53t17.5 66.5h-71q0 -13 -7 -30.5t-26 -31t-54 -13.5t-54 13.5t-26 31t-7 30.5h-71z" />
    <glyph glyph-name="onethird" unicode="&#x2153;" horiz-adv-x="755" 
d="M568 700l-520 -700h65l520 700h-65zM30 611l93 28v-365h51v426l-144 -36v-53zM597 -6q56 0 93.5 32t37.5 85q0 44 -23 70.5t-60 37.5q33 14 52 39t19 56q0 44 -31 78t-85 34q-52 0 -85.5 -30.5t-33.5 -79.5h49q0 28 20.5 46t49.5 18q32 0 48 -18.5t16 -48.5t-22 -51.5
t-63 -21.5v-12v-21v-12q41 0 69 -19.5t28 -58.5q0 -34 -21.5 -54.5t-57.5 -20.5t-59 19.5t-23 49.5h-52q0 -49 36.5 -83t97.5 -34z" />
    <glyph glyph-name="comma" unicode="," horiz-adv-x="308" 
d="M148 110l-88 -259l58 -21l110 250z" />
    <glyph glyph-name="uni2079" unicode="&#x2079;" horiz-adv-x="346" 
d="M279 564q0 -43 -26.5 -71t-67.5 -28q-40 0 -67 28t-27 71q0 44 27 71t67 27q41 0 67.5 -27t26.5 -71zM160 282l141 195q12 17 19.5 39.5t7.5 47.5q0 65 -41 104.5t-102 39.5t-102 -39.5t-41 -104.5q0 -38 17 -69t45 -49t62 -18q14 0 26 2t22 8l-119 -156h65z" />
    <glyph glyph-name="aogonek" unicode="&#x105;" horiz-adv-x="485" 
d="M430 -130q-10 -10 -20 -15t-30 -5q-22 0 -35 11.5t-13 38.5q0 28 27 56t66 44v330q0 67 -49 103.5t-128 36.5q-62 0 -106 -19t-70 -38l39 -61q17 12 52.5 30t84.5 18q38 0 67.5 -17.5t29.5 -52.5v-77q-19 13 -48.5 23t-70.5 10q-91 0 -143.5 -40.5t-52.5 -113.5
q0 -47 21.5 -78.5t57.5 -47.5t79 -16q52 0 94 19.5t63 56.5v-63q-39 -25 -66 -56t-27 -67q0 -44 30 -72t93 -28q32 0 54.5 12.5t33.5 27.5zM111 135q0 42 29 66t90 24q33 0 61 -6.5t54 -20.5v-18q0 -64 -38.5 -91.5t-98.5 -27.5q-40 0 -68.5 18.5t-28.5 55.5z" />
    <glyph glyph-name="less" unicode="&#x3c;" horiz-adv-x="640" 
d="M197 262l378 158v80l-510 -220v-45l510 -220v80z" />
    <glyph glyph-name="uni2156" unicode="&#x2156;" horiz-adv-x="871" 
d="M695 700l-520 -700h65l520 700h-65zM30 282h296v48h-191l133 136q25 26 40.5 55t15.5 61q0 28 -13 57.5t-41 49.5t-74 20q-65 0 -103.5 -42t-38.5 -109h51q0 48 25.5 75.5t65.5 27.5q38 0 57 -23.5t19 -51.5q0 -25 -11.5 -47.5t-32.5 -44.5zM841 136q0 62 -35.5 102
t-89.5 40q-33 0 -62 -16l27 111h159v45h-198l-55 -224q32 23 54.5 30.5t52.5 7.5q41 0 67.5 -26t26.5 -70q0 -43 -24.5 -69.5t-69.5 -26.5q-34 0 -63 21.5t-43 48.5l-43 -30q21 -36 56 -62t93 -26q61 0 104 36.5t43 107.5z" />
    <glyph glyph-name="logicalnot" unicode="&#xac;" horiz-adv-x="620" 
d="M65 300h415v-125h75v200h-490v-75z" />
    <glyph glyph-name="Idieresis" unicode="&#xcf;" horiz-adv-x="245" 
d="M-32 825q0 -22 16 -38.5t38 -16.5q23 0 39.5 16.5t16.5 38.5q0 23 -16.5 39t-39.5 16q-22 0 -38 -16t-16 -39zM168 825q0 -22 16 -38.5t38 -16.5q23 0 39.5 16.5t16.5 38.5q0 23 -16.5 39t-39.5 16q-22 0 -38 -16t-16 -39zM80 700v-700h85v700h-85z" />
    <glyph glyph-name="breve" unicode="&#x2d8;" horiz-adv-x="546" 
d="M115 850q0 -34 17.5 -66.5t53 -53t87.5 -20.5q53 0 88 20.5t52.5 53t17.5 66.5h-71q0 -13 -7 -30.5t-26 -31t-54 -13.5t-54 13.5t-26 31t-7 30.5h-71z" />
    <glyph glyph-name="emacron" unicode="&#x113;" horiz-adv-x="515" 
d="M88 530h350v75h-350v-75zM117 210h362q1 6 1 12v12q0 73 -27 125.5t-76 81.5t-114 29q-59 0 -106.5 -24t-77.5 -67t-40 -100q-2 -12 -3 -24t-1 -25q0 -69 28.5 -123.5t78 -85.5t111.5 -31q60 0 100 14.5t68 41t51 61.5l-65 41q-23 -37 -58.5 -60t-85.5 -23
q-63 0 -102 37.5t-44 107.5zM119 278q6 56 47.5 89t96.5 33q60 0 92 -34t38 -88h-274z" />
    <glyph glyph-name="divide" unicode="&#xf7;" horiz-adv-x="623" 
d="M60 225h500v80h-500v-80zM255 70q0 -22 16.5 -38.5t38.5 -16.5q23 0 39 16.5t16 38.5q0 23 -16 39t-39 16q-22 0 -38.5 -16t-16.5 -39zM255 450q0 -22 16.5 -38.5t38.5 -16.5q23 0 39 16.5t16 38.5q0 23 -16 39t-39 16q-22 0 -38.5 -16t-16.5 -39z" />
    <glyph glyph-name="sterling" unicode="&#xa3;" horiz-adv-x="580" 
d="M450 479l71 29q-2 30 -15 65t-37 66t-61 51t-87 20q-59 0 -105.5 -23t-73 -66t-26.5 -103q0 -50 15 -84.5t34 -63.5h-98v-75h141q4 -10 6.5 -21.5t2.5 -24.5q0 -44 -18 -81.5t-52 -77t-83 -90.5h453v80h-307q38 29 63 77.5t25 106.5q0 16 -3 31h132v75h-163
q-13 22 -27.5 43t-24 47t-9.5 60q0 38 17 61.5t44 34t57 10.5q43 0 71 -21.5t42 -55t16 -70.5z" />
    <glyph glyph-name="Uring" unicode="&#x16e;" horiz-adv-x="626" 
d="M75 700v-470q0 -69 29.5 -123.5t83 -85.5t125.5 -31q73 0 126 31t82.5 85.5t29.5 123.5v470h-85v-470q0 -72 -39 -116t-114 -44t-114 44t-39 116v470h-85zM211 870q0 -45 31.5 -72.5t70.5 -27.5t70.5 27.5t31.5 72.5t-31.5 72.5t-70.5 27.5t-70.5 -27.5t-31.5 -72.5z
M262 870q0 25 16 39t35 14t35 -14t16 -39t-16 -39t-35 -14t-35 14t-16 39z" />
    <glyph glyph-name="plusminus" unicode="&#xb1;" horiz-adv-x="615" 
d="M265 620v-195h-200v-80h200v-195h85v195h200v80h-200v195h-85zM65 0h485v80h-485v-80z" />
    <glyph glyph-name="paragraph" unicode="&#xb6;" horiz-adv-x="578" 
d="M288 270v-490h70v855h90v-855h70v920h-30h-40h-90h-70q-62 0 -114 -25t-83 -72.5t-31 -117.5q0 -69 31 -117t83 -73t114 -25z" />
    <glyph glyph-name="uni1E9E" unicode="&#x1e9e;" horiz-adv-x="716" 
d="M453 -10q63 0 112 24t77.5 68t28.5 103q0 74 -38.5 117.5t-100.5 62.5q55 23 87 67.5t32 101.5t-34.5 96.5t-92 59.5t-127.5 20q-87 0 -159 -33.5t-115 -104.5t-43 -186v-386h85v386q0 91 32 145t85.5 78t115.5 24q75 0 120.5 -31t45.5 -81q0 -49 -36.5 -85t-104.5 -36
v-20v-35v-20q68 0 114.5 -32.5t46.5 -97.5q0 -57 -35.5 -91t-95.5 -34t-98.5 33t-38.5 82h-86q0 -54 27.5 -98.5t78 -70.5t117.5 -26z" />
    <glyph glyph-name="ampersand" unicode="&#x26;" horiz-adv-x="675" 
d="M279 432q-28 32 -53 61.5t-25 62.5q0 38 23 61t64 23t64 -24t23 -62q0 -31 -25.5 -62t-70.5 -60zM543 129q32 34 62.5 72t58.5 76l-62 39q-25 -35 -52 -68.5t-56 -62.5l-169 195q62 40 96.5 83.5t34.5 90.5q0 42 -20 77.5t-57.5 57.5t-90.5 22q-75 0 -123 -42t-48 -113
q0 -35 16.5 -64t38.5 -53t40 -43q-27 -14 -57 -32t-56 -43t-42.5 -59t-16.5 -79q0 -59 32.5 -102.5t84 -67t108.5 -23.5q66 0 121.5 24.5t103.5 64.5l69 -79h96zM441 135q-40 -32 -82.5 -51.5t-88.5 -19.5q-60 0 -102.5 33.5t-42.5 90.5q0 40 20 68t51 49t63 38z" />
    <glyph glyph-name="OE" unicode="&#x152;" horiz-adv-x="985" 
d="M515 620v-540h-125q-78 0 -138 33.5t-93.5 94.5t-33.5 142q0 82 33.5 142.5t93 94t138.5 33.5h125zM916 80h-316v260h295v80h-295v200h315v80h-525q-102 0 -181 -44t-124 -122.5t-45 -183.5t45 -183.5t124.5 -122.5t180.5 -44h526v80z" />
    <glyph glyph-name="oneeighth" unicode="&#x215b;" horiz-adv-x="760" 
d="M568 700l-520 -700h65l520 700h-65zM30 611l93 28v-365h51v426l-144 -36v-53zM483 319q0 -34 16 -58.5t44 -36.5q-32 -13 -53.5 -41t-21.5 -69q0 -32 17 -59.5t47 -44t67 -16.5q38 0 67.5 16.5t46.5 44t17 59.5q0 41 -21.5 69t-53.5 41q28 12 44 36.5t16 58.5
q0 44 -33 75.5t-83 31.5q-49 0 -82.5 -31.5t-33.5 -75.5zM532 313q0 30 19 49t48 19t48 -19t19 -49t-20 -48.5t-47 -18.5t-47 18.5t-20 48.5zM517 120q0 35 25.5 58t56.5 23q32 0 57 -23t25 -58q0 -39 -25 -60t-57 -21q-31 0 -56.5 21t-25.5 60z" />
    <glyph glyph-name="o" unicode="o" horiz-adv-x="546" 
d="M116 230q0 48 20.5 85.5t56 58.5t80.5 21t80.5 -21t56 -58.5t20.5 -85.5t-20.5 -85t-56 -58.5t-80.5 -21.5t-80.5 21.5t-56 58.5t-20.5 85zM35 230q0 -69 31.5 -123.5t85.5 -85.5t121 -31q68 0 121.5 31t85 85.5t31.5 123.5q0 70 -31.5 124t-85 85t-121.5 31
q-67 0 -121 -31t-85.5 -85t-31.5 -124z" />
    <glyph glyph-name="g" unicode="g" 
d="M116 230q0 53 21.5 90t57.5 56t78 19q35 0 69 -19t56 -56t22 -90t-22 -90t-56 -56t-69 -19q-42 0 -78 19t-57.5 56t-21.5 90zM35 230q0 -74 31 -128t83 -83t114 -29q51 0 91.5 23t65.5 66v-69q0 -58 -22.5 -94.5t-56.5 -53.5t-69 -17q-45 0 -78 17.5t-51 46t-18 61.5h-81
q0 -59 29 -104.5t80.5 -70.5t118.5 -25q58 0 110 27t85 80.5t33 132.5v450h-80v-79q-25 43 -65.5 66t-91.5 23q-62 0 -114 -29t-83 -82.5t-31 -128.5z" />
    <glyph glyph-name="ccedilla" unicode="&#xe7;" horiz-adv-x="478" 
d="M111 230q0 48 20.5 85.5t56 58.5t80.5 21q56 0 100 -25t60 -59v100q-24 28 -68.5 43.5t-91.5 15.5q-67 0 -121 -31t-85.5 -85t-31.5 -124q0 -62 25 -112t69.5 -82t100.5 -42l-53 -103q16 11 33.5 14.5t24.5 3.5q50 0 50 -36q0 -18 -12 -29t-38 -11q-19 0 -30.5 6
t-25.5 18l-34 -40q21 -21 41.5 -29.5t48.5 -8.5q41 0 73.5 24t32.5 70q0 37 -23.5 55.5t-48.5 18.5h-4.5h-4.5l24 43q44 2 85.5 17t63.5 42v100q-16 -34 -60 -59t-100 -25q-45 0 -80.5 21.5t-56 58.5t-20.5 85z" />
    <glyph glyph-name="Cdotaccent" unicode="&#x10a;" horiz-adv-x="685" 
d="M335 825q0 -22 16.5 -38.5t38.5 -16.5q23 0 39 16.5t16 38.5q0 23 -16 39t-39 16q-22 0 -38.5 -16t-16.5 -39zM130 350q0 82 36.5 143.5t95.5 96.5t128 35q74 0 131 -28.5t94 -75.5v112q-44 39 -96 58t-129 19q-73 0 -136.5 -26.5t-111.5 -75t-75 -114.5t-27 -144
t27 -144t75 -114.5t111.5 -75t136.5 -26.5q77 0 129 19t96 58v112q-37 -46 -94 -75t-131 -29q-69 0 -128 35t-95.5 97t-36.5 143z" />
    <glyph glyph-name="cdotaccent" unicode="&#x10b;" horiz-adv-x="478" 
d="M213 585q0 -22 16.5 -38.5t38.5 -16.5q23 0 39 16.5t16 38.5q0 23 -16 39t-39 16q-22 0 -38.5 -16t-16.5 -39zM111 230q0 48 20.5 85.5t56 58.5t80.5 21q56 0 100 -25t60 -59v100q-24 28 -68.5 43.5t-91.5 15.5q-67 0 -121 -31t-85.5 -85t-31.5 -124q0 -69 31.5 -123.5
t85.5 -85.5t121 -31q47 0 91.5 15.5t68.5 43.5v100q-16 -34 -60 -59t-100 -25q-45 0 -80.5 21.5t-56 58.5t-20.5 85z" />
    <glyph glyph-name="w" unicode="w" horiz-adv-x="680" 
d="M5 460l200 -495l131 335l139 -335l200 495h-90l-116 -301l-134 336l-125 -334l-115 299h-90z" />
    <glyph glyph-name="uni2152" unicode="&#x2152;" horiz-adv-x="1080" 
d="M568 700l-520 -700h65l520 700h-65zM30 611l93 28v-365h51v426l-144 -36v-53zM488 338l93 28v-365h51v426l-144 -36v-53zM789 210q0 74 28 121t77 47t77 -47t28 -121q0 -73 -28 -120.5t-77 -47.5t-77 47.5t-28 120.5zM738 210q0 -62 20 -111t55 -77t81 -28t81 28t55 77
t20 111q0 63 -20 111.5t-55 76.5t-81 28t-81 -28t-55 -76.5t-20 -111.5z" />
    <glyph glyph-name="lcaron" unicode="&#x13e;" horiz-adv-x="230" 
d="M75 780v-780h80v780h-80zM293 780l-88 -259l58 -21l110 250z" />
    <glyph glyph-name="uniFF12" unicode="&#xff12;" horiz-adv-x="580" 
d="M26 0h494v80h-320l224 227q41 42 66.5 90t25.5 102q0 35 -12 72.5t-37.5 69t-66 51t-98.5 19.5q-72 0 -125 -31.5t-82 -88t-29 -131.5h84q0 80 42.5 125.5t109.5 45.5q43 0 71 -18.5t42.5 -47t14.5 -59.5q0 -42 -19.5 -79t-54.5 -74z" />
    <glyph glyph-name="exclamdown" unicode="&#xa1;" horiz-adv-x="300" 
d="M205 415q0 23 -16 39t-39 16q-22 0 -38.5 -16t-16.5 -39q0 -22 16.5 -38.5t38.5 -16.5q23 0 39 16.5t16 38.5zM200 -245l-20 500h-60l-20 -500h100z" />
    <glyph glyph-name="igrave" unicode="&#xec;" horiz-adv-x="260" 
d="M-30 700l180 -150l45 30l-150 160zM90 460v-460h80v460h-80z" />
    <glyph glyph-name="bar" unicode="|" horiz-adv-x="274" 
d="M100 785v-1000h74v1000h-74z" />
    <glyph glyph-name="Aring" unicode="&#xc5;" horiz-adv-x="660" 
d="M279 798q0 25 16 39t35 14t35 -14t16 -39t-16 -39t-35 -14t-35 14t-16 39zM228 798q0 -40 26 -67t60 -32l-309 -699h95l89 210h282l89 -210h95l-309 699q35 5 60.5 32t25.5 67q0 45 -31.5 72.5t-70.5 27.5t-70.5 -27.5t-31.5 -72.5zM223 290l107 252l107 -252h-214z" />
    <glyph glyph-name="Uacute" unicode="&#xda;" horiz-adv-x="626" 
d="M443 920l-75 40l-150 -160l45 -30zM75 700v-470q0 -69 29.5 -123.5t83 -85.5t125.5 -31q73 0 126 31t82.5 85.5t29.5 123.5v470h-85v-470q0 -72 -39 -116t-114 -44t-114 44t-39 116v470h-85z" />
    <glyph glyph-name="tilde" unicode="&#x2dc;" horiz-adv-x="530" 
d="M100 625l53 -37q0 8 4 20t15 21.5t31 9.5q23 0 39.5 -11.5t35.5 -23.5t46 -12q38 0 66 22.5t40 50.5l-46 43q-30 -48 -56 -48q-20 0 -33 7t-24.5 16.5t-27 16.5t-39.5 7q-34 0 -65 -22.5t-39 -59.5z" />
    <glyph glyph-name="scaron" unicode="&#x161;" horiz-adv-x="403" 
d="M91 161l-66 -38q7 -37 33.5 -67.5t65.5 -48t81 -17.5q74 0 121 33t47 107q0 34 -18 59.5t-47 44.5t-62 32q-25 11 -51 22t-43.5 24.5t-17.5 31.5q0 27 20 38.5t50 11.5q28 0 56.5 -16t44.5 -39l64 41q-9 26 -34.5 46t-60 32t-71.5 12t-71 -14.5t-56 -41.5t-22 -65
t20 -63.5t50.5 -41.5t61.5 -29q27 -10 50.5 -22t38.5 -28.5t15 -41.5q0 -30 -21 -44t-59 -14q-43 0 -76.5 27t-42.5 69zM203 615l-110 95l-50 -40l160 -140l160 140l-50 40z" />
    <glyph glyph-name="uni2086" unicode="&#x2086;" horiz-adv-x="346" 
d="M84 136q0 44 27 71.5t67 27.5q41 0 67.5 -27.5t26.5 -71.5q0 -43 -26.5 -70.5t-67.5 -27.5q-40 0 -67 27.5t-27 70.5zM203 418l-141 -195q-12 -16 -19.5 -38.5t-7.5 -48.5q0 -64 41 -104t102 -40t102 40t41 104q0 39 -17 69.5t-45 48.5t-62 18q-14 0 -26 -2t-22 -8
l119 156h-65z" />
    <glyph glyph-name="uni2070" unicode="&#x2070;" horiz-adv-x="372" 
d="M81 490q0 74 28 121t77 47t77 -47t28 -121q0 -73 -28 -120.5t-77 -47.5t-77 47.5t-28 120.5zM30 490q0 -62 20 -111t55 -77t81 -28t81 28t55 77t20 111q0 63 -20 111.5t-55 76.5t-81 28t-81 -28t-55 -76.5t-20 -111.5z" />
    <glyph glyph-name="Gcircumflex" unicode="&#x11c;" horiz-adv-x="775" 
d="M395 865l110 -95l50 40l-160 140l-160 -140l50 -40zM405 275h233q-11 -54 -42 -99.5t-81 -73t-120 -27.5q-74 0 -134 35t-95.5 97t-35.5 143q0 82 35.5 143.5t95.5 96.5t134 35q80 0 139 -31.5t92 -87.5l60 55q-45 73 -119.5 111t-171.5 38q-76 0 -141 -26.5t-113 -75
t-74.5 -114.5t-26.5 -144t26.5 -144t74.5 -114.5t113 -75t141 -26.5q80 0 142.5 29.5t105.5 80.5t65 116.5t22 138.5h-325v-80z" />
    <glyph glyph-name="acircumflex" unicode="&#xe2;" horiz-adv-x="485" 
d="M248 625l110 -95l50 40l-160 140l-160 -140l50 -40zM111 352q17 12 52.5 30t84.5 18q38 0 67.5 -17.5t29.5 -52.5v-77q-19 13 -48.5 23t-70.5 10q-55 0 -99.5 -18t-70.5 -53.5t-26 -89.5q0 -63 43.5 -99t114.5 -36q52 0 94 19.5t63 56.5v-66h80v330q0 67 -49 103.5
t-128 36.5q-62 0 -106 -19t-70 -38zM111 135q0 42 29 66t90 24q33 0 61 -6.5t54 -20.5v-18q0 -64 -38.5 -91.5t-98.5 -27.5q-97 0 -97 74z" />
    <glyph glyph-name="endash" unicode="&#x2013;" horiz-adv-x="740" 
d="M70 200h600v75h-600v-75z" />
    <glyph glyph-name="amacron" unicode="&#x101;" horiz-adv-x="485" 
d="M73 550h350v75h-350v-75zM111 352q17 12 52.5 30t84.5 18q38 0 67.5 -17.5t29.5 -52.5v-77q-19 13 -48.5 23t-70.5 10q-55 0 -99.5 -18t-70.5 -53.5t-26 -89.5q0 -63 43.5 -99t114.5 -36q52 0 94 19.5t63 56.5v-66h80v330q0 67 -49 103.5t-128 36.5q-62 0 -106 -19
t-70 -38zM111 135q0 42 29 66t90 24q33 0 61 -6.5t54 -20.5v-18q0 -64 -38.5 -91.5t-98.5 -27.5q-97 0 -97 74z" />
    <glyph glyph-name="questiondown" unicode="&#xbf;" horiz-adv-x="557" 
d="M362 660q0 23 -16 39t-39 16q-22 0 -38.5 -16t-16.5 -39q0 -22 16.5 -38.5t38.5 -16.5q23 0 39 16.5t16 38.5zM141 200q0 38 23 73.5t66 58.5t103 23h26l-20 175h-60l-7 -120q-55 -3 -103.5 -31.5t-78.5 -74.5t-30 -104q0 -59 28.5 -107t78 -75.5t111.5 -27.5
q60 0 100 14.5t68 41t51 61.5l-65 41q-23 -37 -58.5 -60t-85.5 -23q-67 0 -107 35.5t-40 99.5z" />
    <glyph glyph-name="ldot" unicode="&#x140;" horiz-adv-x="370" 
d="M75 780v-780h80v780h-80zM215 415q0 -22 16.5 -38.5t38.5 -16.5q23 0 39 16.5t16 38.5q0 23 -16 39t-39 16q-22 0 -38.5 -16t-16.5 -39z" />
    <glyph glyph-name="guillemotleft" unicode="&#xab;" horiz-adv-x="510" 
d="M130 259l150 186l-50 45l-190 -235l190 -235l50 45zM290 259l150 186l-50 45l-190 -235l190 -235l50 45z" />
    <glyph glyph-name="ucircumflex" unicode="&#xfb;" horiz-adv-x="525" 
d="M262 645l110 -95l50 40l-160 140l-160 -140l50 -40zM155 180v280h-80v-290q0 -89 43.5 -134.5t114.5 -45.5q42 0 77.5 19t59.5 53v-62h80v460h-80v-280q0 -49 -32 -82t-85 -33q-98 0 -98 115z" />
    <glyph glyph-name="Oslash" unicode="&#xd8;" horiz-adv-x="790" 
d="M688 750l-87 -103q-43 30 -95 46.5t-111 16.5q-76 0 -141 -27.5t-113 -76t-74.5 -114t-26.5 -142.5q0 -73 25 -137t69 -112l-94 -111l58 -40l89 104q43 -31 96 -47.5t112 -16.5q77 0 141.5 27.5t112.5 76t74.5 114.5t26.5 142q0 74 -25.5 138.5t-70.5 112.5l93 109z
M597 534q30 -36 46.5 -83t16.5 -101q0 -79 -34.5 -141t-94 -98t-136.5 -36q-43 0 -81 12t-70 34zM544 581l-352 -413q-29 36 -45.5 82.5t-16.5 99.5q0 79 34.5 141t94.5 98t136 36q42 0 80 -11.5t69 -32.5z" />
    <glyph glyph-name="Sacute" unicode="&#x15a;" horiz-adv-x="548" 
d="M112 226l-72 -43q33 -86 98.5 -139.5t151.5 -53.5q104 0 158.5 55.5t54.5 144.5q0 48 -17 82.5t-44 58t-58 39.5t-58 26q-42 16 -79 34t-60 41.5t-23 57.5q0 46 31.5 73t83.5 27q39 0 66 -16.5t46 -43t34 -55.5l69 46q-14 36 -43.5 70.5t-72.5 57t-100 22.5t-103 -21.5
t-73 -61t-27 -92.5q0 -45 17.5 -78t44.5 -56t57.5 -38.5t56.5 -24.5q40 -14 77.5 -33t62 -48t24.5 -74q0 -52 -30 -82.5t-90 -30.5q-65 0 -108 42t-75 114zM458 920l-75 40l-150 -160l45 -30z" />
    <glyph glyph-name="edieresis" unicode="&#xeb;" horiz-adv-x="515" 
d="M108 585q0 -22 16.5 -38.5t38.5 -16.5q23 0 39 16.5t16 38.5q0 23 -16 39t-39 16q-22 0 -38.5 -16t-16.5 -39zM308 585q0 -22 16.5 -38.5t38.5 -16.5q23 0 39 16.5t16 38.5q0 23 -16 39t-39 16q-22 0 -38.5 -16t-16.5 -39zM117 210h362q1 6 1 12v12q0 73 -27 125.5
t-76 81.5t-114 29q-59 0 -106.5 -24t-77.5 -67t-40 -100q-2 -12 -3 -24t-1 -25q0 -69 28.5 -123.5t78 -85.5t111.5 -31q60 0 100 14.5t68 41t51 61.5l-65 41q-23 -37 -58.5 -60t-85.5 -23q-63 0 -102 37.5t-44 107.5zM119 278q6 56 47.5 89t96.5 33q60 0 92 -34t38 -88h-274
z" />
    <glyph glyph-name="acute" unicode="&#xb4;" horiz-adv-x="375" 
d="M300 660l-75 40l-150 -160l45 -30z" />
    <glyph glyph-name="k" unicode="k" horiz-adv-x="440" 
d="M320 460l-170 -162v482h-80v-780h80v233l190 -233h100l-220 270l200 190h-100z" />
    <glyph glyph-name="adieresis.ss01" 
d="M35 230q0 -74 31 -128t83 -83t114 -29q54 0 95.5 25.5t66.5 72.5v-88h75v460h-75v-88q-25 47 -66.5 72.5t-95.5 25.5q-62 0 -114 -29t-83 -82.5t-31 -128.5zM116 230q0 53 21.5 90t57.5 56t78 19q35 0 69 -19t56 -56t22 -90t-22 -90t-56 -56t-69 -19q-42 0 -78 19
t-57.5 56t-21.5 90zM328 585q0 -22 16.5 -38.5t38.5 -16.5q23 0 39 16.5t16 38.5q0 23 -16 39t-39 16q-22 0 -38.5 -16t-16.5 -39zM128 585q0 -22 16.5 -38.5t38.5 -16.5q23 0 39 16.5t16 38.5q0 23 -16 39t-39 16q-22 0 -38.5 -16t-16.5 -39z" />
    <glyph glyph-name="colon" unicode=":" horiz-adv-x="300" 
d="M95 420q0 -22 16.5 -38.5t38.5 -16.5q23 0 39 16.5t16 38.5q0 23 -16 39t-39 16q-22 0 -38.5 -16t-16.5 -39zM95 40q0 -22 16.5 -38.5t38.5 -16.5q23 0 39 16.5t16 38.5q0 23 -16 39t-39 16q-22 0 -38.5 -16t-16.5 -39z" />
    <glyph glyph-name="Zdotaccent" unicode="&#x17b;" horiz-adv-x="545" 
d="M35 620h348l-368 -620h490v80h-348l368 620h-490v-80zM225 825q0 -22 16.5 -38.5t38.5 -16.5q23 0 39 16.5t16 38.5q0 23 -16 39t-39 16q-22 0 -38.5 -16t-16.5 -39z" />
    <glyph glyph-name="dotlessi" unicode="&#x131;" horiz-adv-x="260" 
d="M90 460v-460h80v460h-80z" />
    <glyph glyph-name="lacute" unicode="&#x13a;" horiz-adv-x="230" 
d="M75 780v-780h80v780h-80zM245 990l-75 40l-150 -160l45 -30z" />
    <glyph glyph-name="ellipsis" unicode="&#x2026;" horiz-adv-x="900" 
d="M95 40q0 -22 16.5 -38.5t38.5 -16.5q23 0 39 16.5t16 38.5q0 23 -16 39t-39 16q-22 0 -38.5 -16t-16.5 -39zM395 40q0 -22 16.5 -38.5t38.5 -16.5q23 0 39 16.5t16 38.5q0 23 -16 39t-39 16q-22 0 -38.5 -16t-16.5 -39zM695 40q0 -22 16.5 -38.5t38.5 -16.5q23 0 39 16.5
t16 38.5q0 23 -16 39t-39 16q-22 0 -38.5 -16t-16.5 -39z" />
    <glyph glyph-name="uni013C" unicode="&#x13c;" horiz-adv-x="230" 
d="M75 780v-780h80v780h-80zM119 -60l-88 -259l58 -21l110 250z" />
    <glyph glyph-name="oe" unicode="&#x153;" horiz-adv-x="900" 
d="M504 278q6 56 47.5 89t96.5 33q60 0 92 -34t38 -88h-274zM35 230q0 -74 31 -128t83 -83t114 -29q69 0 117 35t70 99q26 -61 78.5 -97.5t119.5 -36.5q74 0 124.5 32.5t84.5 84.5l-65 41q-23 -37 -58.5 -60t-85.5 -23q-63 0 -102 37.5t-44 107.5h362q1 6 1 12v12
q0 73 -29 125.5t-76 81.5t-102 29q-73 0 -127.5 -36.5t-80.5 -98.5q-22 64 -70 99.5t-117 35.5q-62 0 -114 -29t-83 -82.5t-31 -128.5zM116 230q0 53 21.5 90t57.5 56t78 19q35 0 66.5 -19t51 -56t19.5 -90t-19.5 -90t-51 -56t-66.5 -19q-42 0 -78 19t-57.5 56t-21.5 90z
" />
    <glyph glyph-name="threequarters" unicode="&#xbe;" horiz-adv-x="820" 
d="M164 274q56 0 93.5 32t37.5 85q0 44 -23 70.5t-60 37.5q33 14 52 39t19 56q0 44 -31 78t-85 34q-52 0 -85.5 -30.5t-33.5 -79.5h49q0 28 20.5 46t49.5 18q32 0 48 -18.5t16 -48.5t-22 -51.5t-63 -21.5v-12v-21v-12q41 0 69 -19.5t28 -58.5q0 -34 -21.5 -54.5t-57.5 -20.5
t-59 19.5t-23 49.5h-52q0 -49 36.5 -83t97.5 -34zM685 700l-520 -700h65l520 700h-65zM719 84h66v45h-66v291h-21l-233 -336h54h149v-84h51v84zM668 129h-119l119 178v-178z" />
    <glyph glyph-name="Scaron" unicode="&#x160;" horiz-adv-x="548" 
d="M112 226l-72 -43q33 -86 98.5 -139.5t151.5 -53.5q104 0 158.5 55.5t54.5 144.5q0 48 -17 82.5t-44 58t-58 39.5t-58 26q-42 16 -79 34t-60 41.5t-23 57.5q0 46 31.5 73t83.5 27q39 0 66 -16.5t46 -43t34 -55.5l69 46q-14 36 -43.5 70.5t-72.5 57t-100 22.5t-103 -21.5
t-73 -61t-27 -92.5q0 -45 17.5 -78t44.5 -56t57.5 -38.5t56.5 -24.5q40 -14 77.5 -33t62 -48t24.5 -74q0 -52 -30 -82.5t-90 -30.5q-65 0 -108 42t-75 114zM278 855l-110 95l-50 -40l160 -140l160 140l-50 40z" />
    <glyph glyph-name="gcircumflex" unicode="&#x11d;" 
d="M263 625l110 -95l50 40l-160 140l-160 -140l50 -40zM116 230q0 53 21.5 90t57.5 56t78 19q35 0 69 -19t56 -56t22 -90t-22 -90t-56 -56t-69 -19q-42 0 -78 19t-57.5 56t-21.5 90zM35 230q0 -74 31 -128t83 -83t114 -29q51 0 91.5 23t65.5 66v-69q0 -58 -22.5 -94.5
t-56.5 -53.5t-69 -17q-45 0 -78 17.5t-51 46t-18 61.5h-81q0 -59 29 -104.5t80.5 -70.5t118.5 -25q58 0 110 27t85 80.5t33 132.5v450h-80v-79q-25 43 -65.5 66t-91.5 23q-62 0 -114 -29t-83 -82.5t-31 -128.5z" />
    <glyph glyph-name="Icircumflex" unicode="&#xce;" horiz-adv-x="245" 
d="M122 865l110 -95l50 40l-160 140l-160 -140l50 -40zM80 700v-700h85v700h-85z" />
    <glyph glyph-name="Ccedilla" unicode="&#xc7;" horiz-adv-x="685" 
d="M130 350q0 82 36.5 143.5t95.5 96.5t128 35q74 0 131 -28.5t94 -75.5v112q-44 39 -96 58t-129 19q-73 0 -136.5 -26.5t-111.5 -75t-75 -114.5t-27 -144q0 -96 40.5 -173t110 -125t155.5 -59l-52 -102q16 11 33.5 14.5t24.5 3.5q50 0 50 -36q0 -18 -12 -29t-38 -11
q-19 0 -30.5 6t-25.5 18l-34 -40q21 -21 41.5 -29.5t48.5 -8.5q41 0 73.5 24t32.5 70q0 37 -23.5 55.5t-48.5 18.5h-4.5h-4.5l24 43q72 2 121.5 21t92.5 56v112q-37 -46 -94 -75t-131 -29q-69 0 -128 35t-95.5 97t-36.5 143z" />
    <glyph glyph-name="dcroat" unicode="&#x111;" 
d="M116 230q0 53 21.5 90t57.5 56t78 19q35 0 69 -19t56 -56t22 -90t-22 -90t-56 -56t-69 -19q-42 0 -78 19t-57.5 56t-21.5 90zM35 230q0 -74 31 -128t83 -83t114 -29q51 0 91.5 23t65.5 66v-79h80v590h95v75h-95v115h-80v-115h-125v-75h125v-209q-25 43 -65.5 66t-91.5 23
q-62 0 -114 -29t-83 -82.5t-31 -128.5z" />
    <glyph glyph-name="J" unicode="J" horiz-adv-x="240" 
d="M-67 -104l-44 -66q11 -15 44.5 -32.5t73.5 -17.5q71 0 112 39t41 121v760h-80v-750q0 -49 -22.5 -69.5t-45.5 -20.5q-57 0 -79 36z" />
    <glyph glyph-name="eight" unicode="8" horiz-adv-x="546" 
d="M136 200q0 38 19.5 68.5t51 48.5t66.5 18t66.5 -18t51 -48.5t19.5 -68.5q0 -43 -19.5 -73t-51 -46t-66.5 -16t-66.5 16t-51 46t-19.5 73zM161 521q0 50 31.5 82t80.5 32t80.5 -32t31.5 -82q0 -49 -33.5 -80t-78.5 -31t-78.5 31t-33.5 80zM80 531q0 -57 26.5 -97.5
t72.5 -60.5q-54 -21 -89 -67.5t-35 -115.5q0 -54 28.5 -99.5t78 -73t111.5 -27.5q63 0 112 27.5t77.5 73t28.5 99.5q0 69 -35 115.5t-89 67.5q47 20 73 60.5t26 97.5q0 50 -25.5 90.5t-69 64.5t-98.5 24t-98.5 -24t-69 -64.5t-25.5 -90.5z" />
    <glyph glyph-name="y" unicode="y" horiz-adv-x="440" 
d="M440 460h-90l-126 -317l-129 317h-95l176 -395l-126 -285h90z" />
    <glyph glyph-name="Z" unicode="Z" horiz-adv-x="545" 
d="M35 620h348l-368 -620h490v80h-348l368 620h-490v-80z" />
    <glyph glyph-name="dieresis" unicode="&#xa8;" horiz-adv-x="470" 
d="M80 660q0 -22 16.5 -38.5t38.5 -16.5q23 0 39 16.5t16 38.5q0 23 -16 39t-39 16q-22 0 -38.5 -16t-16.5 -39zM280 660q0 -22 16.5 -38.5t38.5 -16.5q23 0 39 16.5t16 38.5q0 23 -16 39t-39 16q-22 0 -38.5 -16t-16.5 -39z" />
    <glyph glyph-name="e" unicode="e" horiz-adv-x="515" 
d="M117 210h362q1 6 1 12v12q0 73 -27 125.5t-76 81.5t-114 29q-59 0 -106.5 -24t-77.5 -67t-40 -100q-2 -12 -3 -24t-1 -25q0 -69 28.5 -123.5t78 -85.5t111.5 -31q60 0 100 14.5t68 41t51 61.5l-65 41q-23 -37 -58.5 -60t-85.5 -23q-63 0 -102 37.5t-44 107.5zM119 278
q6 56 47.5 89t96.5 33q60 0 92 -34t38 -88h-274z" />
    <glyph glyph-name="rcaron" unicode="&#x159;" horiz-adv-x="343" 
d="M294 372l44 66q-18 19 -39.5 25.5t-46.5 6.5q-26 0 -51.5 -17t-45.5 -46v53h-80v-460h80v280q0 50 16 82.5t61 32.5q20 0 33 -5.5t29 -17.5zM206 615l-110 95l-50 -40l160 -140l160 140l-50 40z" />
    <glyph glyph-name="zero" unicode="0" horiz-adv-x="600" 
d="M40 350q0 -105 33 -186t91.5 -127.5t135.5 -46.5t135.5 46.5t91.5 127.5t33 186t-33 186t-91.5 127.5t-135.5 46.5t-135.5 -46.5t-91.5 -127.5t-33 -186zM125 350q0 82 21.5 145t60.5 99t93 36t93.5 -36t60.5 -99t21 -145q0 -81 -21 -144.5t-60.5 -99.5t-93.5 -36t-93 36
t-60.5 99.5t-21.5 144.5z" />
    <glyph glyph-name="tcaron" unicode="&#x165;" horiz-adv-x="350" 
d="M80 620v-160h-75v-75h75v-385h80v385h75v75h-75v160h-80zM295 810l-88 -259l58 -21l110 250z" />
    <glyph glyph-name="aring" unicode="&#xe5;" horiz-adv-x="485" 
d="M197 630q0 25 16 39t35 14t35 -14t16 -39t-16 -39t-35 -14t-35 14t-16 39zM146 630q0 -45 31.5 -72.5t70.5 -27.5t70.5 27.5t31.5 72.5t-31.5 72.5t-70.5 27.5t-70.5 -27.5t-31.5 -72.5zM111 352q17 12 52.5 30t84.5 18q38 0 67.5 -17.5t29.5 -52.5v-77q-19 13 -48.5 23
t-70.5 10q-55 0 -99.5 -18t-70.5 -53.5t-26 -89.5q0 -63 43.5 -99t114.5 -36q52 0 94 19.5t63 56.5v-66h80v330q0 67 -49 103.5t-128 36.5q-62 0 -106 -19t-70 -38zM111 135q0 42 29 66t90 24q33 0 61 -6.5t54 -20.5v-18q0 -64 -38.5 -91.5t-98.5 -27.5q-97 0 -97 74z" />
    <glyph glyph-name="Aacute" unicode="&#xc1;" horiz-adv-x="660" 
d="M460 945l-75 40l-150 -160l45 -30zM189 210h282l89 -210h95l-325 735l-325 -735h95zM223 290l107 252l107 -252h-214z" />
    <glyph glyph-name="quoteright" unicode="&#x2019;" horiz-adv-x="275" 
d="M110 700l-60 -230h55l100 230h-95z" />
    <glyph glyph-name="itilde" unicode="&#x129;" horiz-adv-x="260" 
d="M-35 567l53 -37q0 8 4 20t15 21.5t31 9.5q23 0 39.5 -11.5t35.5 -23.5t46 -12q38 0 66 22.5t40 50.5l-46 43q-30 -48 -56 -48q-20 0 -33 7t-24.5 16.5t-27 16.5t-39.5 7q-34 0 -65 -22.5t-39 -59.5zM90 460v-460h80v460h-80z" />
    <glyph glyph-name="Euro" unicode="&#x20ac;" horiz-adv-x="580" 
d="M15 287h59q12 -88 52.5 -155t103 -104.5t140.5 -37.5q41 0 78.5 11t71.5 30v101q-64 -62 -150 -62q-55 0 -99 27.5t-72.5 76.5t-38.5 113h330v48h-335v7.5v7.5q0 15 1.5 29.5t2.5 27.5h357v48h-348q22 80 75.5 127.5t126.5 47.5q86 0 150 -62v101q-34 20 -71.5 30.5
t-78.5 10.5q-71 0 -130 -32t-100 -89t-59 -134h-66v-48h58q-3 -27 -3 -57v-7.5v-7.5h-55v-48z" />
    <glyph glyph-name="Agrave" unicode="&#xc0;" horiz-adv-x="660" 
d="M200 945l180 -150l45 30l-150 160zM189 210h282l89 -210h95l-325 735l-325 -735h95zM223 290l107 252l107 -252h-214z" />
    <glyph glyph-name="c" unicode="c" horiz-adv-x="478" 
d="M111 230q0 48 20.5 85.5t56 58.5t80.5 21q56 0 100 -25t60 -59v100q-24 28 -68.5 43.5t-91.5 15.5q-67 0 -121 -31t-85.5 -85t-31.5 -124q0 -69 31.5 -123.5t85.5 -85.5t121 -31q47 0 91.5 15.5t68.5 43.5v100q-16 -34 -60 -59t-100 -25q-45 0 -80.5 21.5t-56 58.5
t-20.5 85z" />
    <glyph glyph-name="uni2074" unicode="&#x2074;" horiz-adv-x="386" 
d="M233 409h-119l119 178v-178zM284 364h66v45h-66v291h-21l-233 -336h54h149v-84h51v84z" />
    <glyph glyph-name="t" unicode="t" horiz-adv-x="240" 
d="M80 620v-160h-75v-75h75v-385h80v385h75v75h-75v160h-80z" />
    <glyph glyph-name="glyph370" unicode="&#x179;" horiz-adv-x="545" 
d="M35 620h348l-368 -620h490v80h-348l368 620h-490v-80zM440 920l-75 40l-150 -160l45 -30z" />
    <glyph glyph-name="Otilde" unicode="&#xd5;" horiz-adv-x="790" 
d="M230 807l53 -37q0 8 4 20t15 21.5t31 9.5q23 0 39.5 -11.5t35.5 -23.5t46 -12q38 0 66 22.5t40 50.5l-46 43q-30 -48 -56 -48q-20 0 -33 7t-24.5 16.5t-27 16.5t-39.5 7q-34 0 -65 -22.5t-39 -59.5zM40 350q0 -76 26.5 -142t74.5 -114.5t113 -76t141 -27.5
q77 0 141.5 27.5t112.5 76t74.5 114.5t26.5 142q0 77 -26.5 142.5t-74.5 114t-112.5 76t-141.5 27.5q-76 0 -141 -27.5t-113 -76t-74.5 -114t-26.5 -142.5zM130 350q0 79 34.5 141t94.5 98t136 36q77 0 136.5 -36t94 -98t34.5 -141t-34.5 -141t-94 -98t-136.5 -36
q-76 0 -136 36t-94.5 98t-34.5 141z" />
    <glyph glyph-name="adieresis" unicode="&#xe4;" horiz-adv-x="485" 
d="M93 585q0 -22 16.5 -38.5t38.5 -16.5q23 0 39 16.5t16 38.5q0 23 -16 39t-39 16q-22 0 -38.5 -16t-16.5 -39zM293 585q0 -22 16.5 -38.5t38.5 -16.5q23 0 39 16.5t16 38.5q0 23 -16 39t-39 16q-22 0 -38.5 -16t-16.5 -39zM111 352q17 12 52.5 30t84.5 18q38 0 67.5 -17.5
t29.5 -52.5v-77q-19 13 -48.5 23t-70.5 10q-55 0 -99.5 -18t-70.5 -53.5t-26 -89.5q0 -63 43.5 -99t114.5 -36q52 0 94 19.5t63 56.5v-66h80v330q0 67 -49 103.5t-128 36.5q-62 0 -106 -19t-70 -38zM111 135q0 42 29 66t90 24q33 0 61 -6.5t54 -20.5v-18q0 -64 -38.5 -91.5
t-98.5 -27.5q-97 0 -97 74z" />
    <glyph glyph-name="C" unicode="C" horiz-adv-x="685" 
d="M130 350q0 82 36.5 143.5t95.5 96.5t128 35q74 0 131 -28.5t94 -75.5v112q-44 39 -96 58t-129 19q-73 0 -136.5 -26.5t-111.5 -75t-75 -114.5t-27 -144t27 -144t75 -114.5t111.5 -75t136.5 -26.5q77 0 129 19t96 58v112q-37 -46 -94 -75t-131 -29q-69 0 -128 35t-95.5 97
t-36.5 143z" />
    <glyph glyph-name="uni2159" unicode="&#x2159;" horiz-adv-x="734" 
d="M568 700l-520 -700h65l520 700h-65zM30 611l93 28v-365h51v426l-144 -36v-53zM473 136q0 44 27 71.5t67 27.5q41 0 67.5 -27.5t26.5 -71.5q0 -43 -26.5 -70.5t-67.5 -27.5q-40 0 -67 27.5t-27 70.5zM592 418l-141 -195q-12 -16 -19.5 -38.5t-7.5 -48.5q0 -64 41 -104
t102 -40t102 40t41 104q0 39 -17 69.5t-45 48.5t-62 18q-14 0 -26 -2t-22 -8l119 156h-65z" />
    <glyph glyph-name="Eth" unicode="&#xd0;" horiz-adv-x="680" 
d="M5 310h75v-310h47h38h125q102 0 181 44t124 122.5t45 183.5t-45 183.5t-124 122.5t-181 44h-125h-38h-47v-315h-75v-75zM165 85v225h140v75h-140v230h125q79 0 138.5 -32.5t93 -91.5t33.5 -141q0 -81 -33.5 -140.5t-93 -92t-138.5 -32.5h-125z" />
    <glyph glyph-name="eacute" unicode="&#xe9;" horiz-adv-x="515" 
d="M423 690l-75 40l-150 -160l45 -30zM117 210h362q1 6 1 12v12q0 73 -27 125.5t-76 81.5t-114 29q-59 0 -106.5 -24t-77.5 -67t-40 -100q-2 -12 -3 -24t-1 -25q0 -69 28.5 -123.5t78 -85.5t111.5 -31q60 0 100 14.5t68 41t51 61.5l-65 41q-23 -37 -58.5 -60t-85.5 -23
q-63 0 -102 37.5t-44 107.5zM119 278q6 56 47.5 89t96.5 33q60 0 92 -34t38 -88h-274z" />
    <glyph glyph-name="oslash" unicode="&#xf8;" horiz-adv-x="546" 
d="M440 500l-46 -61q-54 31 -121 31t-121 -31t-85.5 -85t-31.5 -124q0 -54 19.5 -99t53.5 -77l-58 -78l45 -20l51 68q56 -34 127 -34q68 0 121.5 31t85 85.5t31.5 123.5q0 56 -21 102.5t-57 78.5l52 69zM386 347q20 -22 32 -52t12 -65q0 -48 -20.5 -85t-56 -58.5
t-80.5 -21.5t-81 22zM348 377l-193 -260q-39 45 -39 113q0 48 20.5 85.5t56 58.5t80.5 21q42 0 75 -18z" />
    <glyph glyph-name="quoteleft" unicode="&#x2018;" horiz-adv-x="275" 
d="M165 470l60 230h-55l-100 -230h95z" />
    <glyph glyph-name="Idotaccent" unicode="&#x130;" horiz-adv-x="245" 
d="M67 825q0 -22 16.5 -38.5t38.5 -16.5q23 0 39 16.5t16 38.5q0 23 -16 39t-39 16q-22 0 -38.5 -16t-16.5 -39zM80 700v-700h85v700h-85z" />
    <glyph glyph-name="two" unicode="2" horiz-adv-x="569" 
d="M20 0h494v80h-319l223 227q41 42 67 95t26 107q0 32 -13 67t-40 65.5t-69 50t-100 19.5q-72 0 -123.5 -31.5t-78.5 -88t-27 -131.5h85q0 80 38.5 125.5t105.5 45.5q43 0 73 -18.5t46 -47t16 -59.5q0 -42 -19 -79t-54 -74z" />
    <glyph glyph-name="registered" unicode="&#xae;" horiz-adv-x="800" 
d="M40 350q0 -78 27.5 -144t76 -114.5t114.5 -75t142 -26.5q77 0 142.5 26.5t114 75t76 114.5t27.5 144t-27.5 144t-76 114.5t-114 75t-142.5 26.5q-76 0 -142 -26.5t-114.5 -75t-76 -114.5t-27.5 -144zM95 350q0 89 40 159t109.5 110.5t155.5 40.5q87 0 156 -40.5
t109 -110.5t40 -159t-40 -159t-109 -110.5t-156 -40.5q-86 0 -155.5 40.5t-109.5 110.5t-40 159zM325 318h51l117 -168h63l-125 173q44 11 72 42.5t28 78.5q0 58 -41 92t-102 34h-63h-23h-28v-420h51v168zM325 363v162h63q41 0 66.5 -21t25.5 -60t-25.5 -60t-66.5 -21h-63z
" />
    </font>
</defs>
</svg>
